˂
˃
Tarqatmalar statistikasi
Ko‘chiraman: [ 1 ]
Ko‘chirmoqdaman: [ 2 ]
Ko‘chirib bo‘ldim: [ 29 ]
 
     
 
 

AxeL ®

Jins:
Yigit
Staj:
9 oy
Xabarlar:
615

Qayerdan: Gronland, Norway

Taqiq:

Vaqt g'aroyibotlari / Излом времени / A Wrinkle in Time- Chiqqan yili: 2018
Davlat: AQSh
Janr: fantastika, fantaziya, sarguzasht, oilaviy
Davomiyligi: 01:49:37
Tarjima: Professional (dublyaj qilingan, kadr ortidan) O'zbek tilida-Rejissyor: Ava Dyuverney-Rollarda: Storm Reyd, Opra Uinfri, Riz Uizerspun, Mindi Keyling, Levi Miller, Derik Makkeyb, Kris Payn, ...-Tavsif: Megning ota onasi olim, ular astronomiya ilmidan ancha o'zib ketishgan. Meg yoshligidan yulduzlar bilan birga bo'lishni orzu qilgan. Mana u katta bo'ldi. Kunlarning birida qandaydir g'oyibdan kelgan odamlar kelishadi....-Videoning sifati: BDRip-AVC
Video format: MKV
Video: MPEG4 Video (H264) 1024x428 23.976fps 1 710 Kbps
Audio #1: Dolby AC3 48000Hz stereo 192kbps Rus tilida
Audio #2: AAC 48000Hz stereo 128 kbps O'zbek tilida

Media info

General
Unique ID : 93896396257108203417944184958561180149 (0x46A3C9C25FBC94293EB77552A81259F5)
Complete name : D:\Films\Tarjima\HD Video\Vaqt.Garoyibotlari.BDRip.AVC.2018.mkv
Format : Matroska
Format version : Version 4 / Version 2
File size : 1.56 GiB
Duration : 1h 49mn
Overall bit rate : 2 028 Kbps
Movie name : Rip by qusi555
Encoded date : UTC 2018-09-30 05:00:54
Writing application : mkvmerge v22.0.0 ('At The End Of The World') 64-bit
Writing library : libebml v1.3.5 + libmatroska v1.4.8
Video
ID : 1
Format : AVC
Format/Info : Advanced Video Codec
Format profile : High@L4.1
Format settings, CABAC : Yes
Format settings, ReFrames : 16 frames
Codec ID : V_MPEG4/ISO/AVC
Duration : 1h 49mn
Bit rate : 1 710 Kbps
Width : 1 024 pixels
Height : 428 pixels
Display aspect ratio : 2.40:1
Frame rate mode : Constant
Frame rate : 23.976 (24000/1001) fps
Color space : YUV
Chroma subsampling : 4:2:0
Bit depth : 8 bits
Scan type : Progressive
Bits/(Pixel*Frame) : 0.163
Stream size : 1.31 GiB (84%)
Title : Rip by qusi555
Writing library : x264 core 155 r2901 7d0ff22
Encoding settings : cabac=1 / ref=16 / deblock=1:-3:-3 / analyse=0x3:0x133 / me=umh / subme=10 / psy=1 / psy_rd=1.05:0.00 / mixed_ref=1 / me_range=32 / chroma_me=1 / trellis=2 / 8x8dct=1 / cqm=0 / deadzone=21,11 / fast_pskip=0 / chroma_qp_offset=-4 / threads=12 / lookahead_threads=2 / sliced_threads=0 / nr=0 / decimate=0 / interlaced=0 / bluray_compat=0 / constrained_intra=0 / bframes=8 / b_pyramid=2 / b_adapt=2 / b_bias=0 / direct=3 / weightb=1 / open_gop=0 / weightp=2 / keyint=240 / keyint_min=23 / scenecut=40 / intra_refresh=0 / rc_lookahead=60 / rc=2pass / mbtree=0 / bitrate=1710 / ratetol=1.0 / qcomp=0.65 / qpmin=0 / qpmax=69 / qpstep=4 / cplxblur=20.0 / qblur=0.5 / vbv_maxrate=50000 / vbv_bufsize=62500 / nal_hrd=none / filler=0 / ip_ratio=1.30 / pb_ratio=1.20 / aq=3:0.80
Default : Yes
Forced : No
Audio #1
ID : 2
Format : AC-3
Format/Info : Audio Coding 3
Mode extension : CM (complete main)
Format settings, Endianness : Big
Codec ID : A_AC3
Duration : 1h 49mn
Bit rate mode : Constant
Bit rate : 192 Kbps
Channel(s) : 2 channels
Channel positions : Front: L R
Sampling rate : 48.0 KHz
Frame rate : 31.250 fps (1536 spf)
Compression mode : Lossy
Stream size : 151 MiB (9%)
Title : Itunes Rus 192 (2.0)
Language : Russian
Default : Yes
Forced : No
Audio #2
ID : 6
Format : AAC
Format/Info : Advanced Audio Codec
Format profile : LC
Codec ID : A_AAC
Duration : 1h 49mn
Bit rate : 128 Kbps
Channel(s) : 2 channels
Channel positions : Front: L R
Sampling rate : 48.0 KHz
Frame rate : 46.875 fps (1024 spf)
Compression mode : Lossy
Stream size : 100 MiB (6%)
Title : O'zbek tilida (DUB) AxeL
Language : Uzbek
Default : No
Forced : No
Text #1
ID : 3
Format : UTF-8
Codec ID : S_TEXT/UTF8
Codec ID/Info : UTF-8 Plain Text
Duration : 1h 38mn
Bit rate : 74 bps
Count of elements : 1302
Stream size : 53.7 KiB (0%)
Title : Full
Language : Russian
Default : No
Forced : No
Text #2
ID : 4
Format : UTF-8
Codec ID : S_TEXT/UTF8
Codec ID/Info : UTF-8 Plain Text
Duration : 1h 45mn
Bit rate : 46 bps
Count of elements : 1433
Stream size : 35.6 KiB (0%)
Title : Full
Language : English
Default : No
Forced : No
Text #3
ID : 5
Format : UTF-8
Codec ID : S_TEXT/UTF8
Codec ID/Info : UTF-8 Plain Text
Duration : 1h 46mn
Bit rate : 51 bps
Count of elements : 1597
Stream size : 40.7 KiB (0%)
Title : SDH
Language : English
Default : No
Forced : No
-LAVHALAR--Rahmat va Like bosish sizlardan, reliz qilish bizdan!!!-
Profil ShX

AxeL ®

Jins:
Yigit
Staj:
9 oy
Xabarlar:
615

Qayerdan: Gronland, Norway

Taqiq:

So'rovnomada qatnashing, yangi kinolardan bahramand bo'ling!

Mavzu yaratish 30-Sen-2018 18:44 (2 soat 28 daqiqa o‘tgach)

Iqitibos

Profil ShX
Xabarlarni ko‘rsatish:    

Hozirgi vaqt: 18-Dek 00:06

Vaqtlar farqi: UTC + 5



Siz mavzu yaratishingiz mumkin emas
Siz xabarlarga javob qaytarishingiz mumkin emas
Siz o‘z xabarlaringizni tahrirlashingiz mumkin emas
Siz o‘z xabarlaringizni o‘chirishingiz mumkin emas
Siz so‘rovlarda ovoz berishingiz mumkin emas
Siz xabalarga fayllarni biriktirishingiz mumkin emas
Siz fayllarni ko‘chirishingiz mumkin emas