˂
˃
Tarqatmalar statistikasi
Ko‘chirmoqdaman: [ 1 ]
Ko‘chirib bo‘ldim: [ 10 ]
 
     
 
 

Soft-Release ®

Jins:
Yigit
Staj:
8 oy 27 kun
Xabarlar:
737

Qayerdan: Kattakurgan

Taqiq:

Venom / Веном- Chiqqan Yili: 2018
Davlat: AQSH
Janr: Daxshat, Fantastika, Jangari, Triller
Davomiyligi: 00:02:27
Tarjima: Dublyaj Qilingan [O'zbek Tilida]-Rejissyor: Ruben Flyasher-Rollarda: Tom Hardi, Mishel Uillyams, Marshello Brajio, Vudi Harrelson, Jenni Sleyt, Riz Ahmed, Mek Brendt, Ron Sepas Jons, Mishel Li, Melora Uolters-Tavsif: Agar bir kun sizni insoniy qobiliyatlarga ega bo'lgan simbiyotik mavjudot bilan uchrashtirishsa nima bo'ladi? Bu faqat Venom - simbiot mutlaqo shafqatsiz va u bilan kelishish mumkin emas. Lekin kelishish kerakmi? Lekin, ba'zida, yomon bo'lish juda ham yomon emas. Hattoki, yanada qiziqarli. Dunyoda juda ko'p qahramonlar bor! Biz Venommiz!- -Sifat: WEBRip 720p
Format: MP4
Video: 1280x548 (2.35:1), 23.976 fps, ~1299 kbps
Audio: 44.1 kHz, AAC 2/0 (L,R) ch, ~128 kbps
-

MediaInfo

General
Complete name : C:\Фильмы 2017\Трейлеры\VENOM - Treyler O'zbek tilida UZTRACKER.ME.MP4
Format : MPEG-4
Format profile : Base Media / Version 2
Codec ID : mp42 (isom/mp42)
File size : 25.1 MiB
Duration : 2 min 27 s
Overall bit rate mode : Variable
Overall bit rate : 1 430 kb/s
Encoded date : UTC 2018-05-07 17:50:31
Tagged date : UTC 2018-05-07 17:50:31
gsst : 0
gstd : 147168
Video
ID : 1
Format : AVC
Format/Info : Advanced Video Codec
Format profile : Main@L3.1
Format settings : CABAC / 3 Ref Frames
Format settings, CABAC : Yes
Format settings, ReFrames : 3 frames
Codec ID : avc1
Codec ID/Info : Advanced Video Coding
Duration : 2 min 27 s
Bit rate : 1 299 kb/s
Width : 1 280 pixels
Height : 548 pixels
Display aspect ratio : 2.35:1
Frame rate mode : Constant
Frame rate : 23.976 (24000/1001) FPS
Color space : YUV
Chroma subsampling : 4:2:0
Bit depth : 8 bits
Scan type : Progressive
Bits/(Pixel*Frame) : 0.077
Stream size : 22.8 MiB (91%)
Title : ISO Media file produced by Google Inc. Created on: 05/07/2018.
Encoded date : UTC 2018-05-07 17:50:31
Tagged date : UTC 2018-05-07 17:50:31
Color range : Limited
Color primaries : BT.709
Transfer characteristics : BT.709
Matrix coefficients : BT.709
Audio
ID : 2
Format : AAC
Format/Info : Advanced Audio Codec
Format profile : LC
Codec ID : mp4a-40-2
Duration : 2 min 27 s
Bit rate mode : Variable
Bit rate : 128 kb/s
Channel(s) : 2 channels
Channel positions : Front: L R
Sampling rate : 44.1 kHz
Frame rate : 43.066 FPS (1024 SPF)
Compression mode : Lossy
Stream size : 2.24 MiB (9%)
Title : ISO Media file produced by Google Inc. Created on: 05/07/2018.
Encoded date : UTC 2018-05-07 17:50:31
Tagged date : UTC 2018-05-07 17:50:31

Profil ShX
Xabarlarni ko‘rsatish:    

Hozirgi vaqt: 11-Dek 03:39

Vaqtlar farqi: UTC + 5



Siz mavzu yaratishingiz mumkin emas
Siz xabarlarga javob qaytarishingiz mumkin emas
Siz o‘z xabarlaringizni tahrirlashingiz mumkin emas
Siz o‘z xabarlaringizni o‘chirishingiz mumkin emas
Siz so‘rovlarda ovoz berishingiz mumkin emas
Siz xabalarga fayllarni biriktirishingiz mumkin emas
Siz fayllarni ko‘chirishingiz mumkin emas