˂
˃
Tarqatmalar statistikasi
Ko‘chirmoqdaman: [ 2 ]
Ko‘chirib bo‘ldim: [ 3 ]
 
     
 
 

yunusovjamshid ®

Jins:
Yigit
Staj:
1 oy 14 kun
Xabarlar:
30

Qayerdan: Toshkent

Taqiq:

--Venom | Веном | Venom
-- Chiqqan yili: 2018
Davlat:
Janr: Dahshatli, Jangari, Fantastika, Triller, Komiks
Davomiyligi: 01:49:58
Tarjima: Havaskor ko'p ovozli [@MUZOBOZ@] (Rus tilida) + Reklama--Rejissyor: Ruben Flyasher | Рубен Фляйшер | Ruben Fleischer--Rollarda: Tom Hardy, Mishel Uilyams, Marcella Bragio, Vudy Harrelson, Jenni Slate, Reese Ahmad, Mac Brandt, Ron Sepas Jones, Mishel Lee, Melora Walters--Tavsif: Agar bir kun sizni insoniy qobiliyatlarga ega bo'lgan simbiyotik mavjudot bilan uchrashtirishsa nima bo'ladi? Bu faqat Venom - simbiot mutlaqo shafqatsiz va u bilan kelishish mumkin emas. Lekin kelishish kerakmi? Lekin, ba'zida, yomon bo'lish juda ham yomon emas. Hattoki, yanada qiziqarli. Dunyoda juda ko'p qahramonlar bor! Biz Venommiz-- Videoning sifati: WEB-DL 1080
Video format: MKV
Video: 1920x800, 23.976 fps, AVC, 5 597 kbps
Audio : 48 kHz, AC3, 2 ch, ~384 kbps

Media Info

General
Unique ID : 253136060173677632744893421142282655981 (0xBE703B5929BABCC19104F9023F34D8ED)
Complete name : D:\проче\кино\Venom.2018.WEB-DL.1080p.mkv
Format : Matroska
Format version : Version 2
File size : 4.60 GiB
Duration : 1 h 49 min
Overall bit rate mode : Variable
Overall bit rate : 5 983 kb/s
Encoded date : UTC 2018-11-28 10:46:33
Writing application : mkvmerge v8.3.0 ('Over the Horizon') 64bit
Writing library : libebml v1.3.1 + libmatroska v1.4.2
Video
ID : 1
Format : AVC
Format/Info : Advanced Video Codec
Format profile : High@L4.1
Format settings, CABAC : Yes
Format settings, ReFrames : 4 frames
Codec ID : V_MPEG4/ISO/AVC
Duration : 1 h 49 min
Bit rate mode : Variable
Bit rate : 5 597 kb/s
Maximum bit rate : 6 300 kb/s
Width : 1 920 pixels
Height : 800 pixels
Display aspect ratio : 2.40:1
Frame rate mode : Constant
Frame rate : 23.976 (24000/1001) FPS
Standard : Component
Color space : YUV
Chroma subsampling : 4:2:0
Bit depth : 8 bits
Scan type : Progressive
Bits/(Pixel*Frame) : 0.152
Stream size : 4.30 GiB (94%)
Default : Yes
Forced : No
Color range : Limited
Color primaries : BT.709
Transfer characteristics : BT.709
Matrix coefficients : BT.709
Audio
ID : 2
Format : AC-3
Format/Info : Audio Coding 3
Format settings, Endianness : Big
Codec ID : A_AC3
Duration : 1 h 49 min
Bit rate mode : Constant
Bit rate : 384 kb/s
Channel(s) : 2 channels
Channel positions : Front: L R
Sampling rate : 48.0 kHz
Frame rate : 31.250 FPS (1536 spf)
Bit depth : 16 bits
Compression mode : Lossy
Stream size : 302 MiB (6%)
Service kind : Complete Main
Default : Yes
Forced : No
Profil ShX
Xabarlarni ko‘rsatish:    

Hozirgi vaqt: 17-Dek 09:30

Vaqtlar farqi: UTC + 5



Siz mavzu yaratishingiz mumkin emas
Siz xabarlarga javob qaytarishingiz mumkin emas
Siz o‘z xabarlaringizni tahrirlashingiz mumkin emas
Siz o‘z xabarlaringizni o‘chirishingiz mumkin emas
Siz so‘rovlarda ovoz berishingiz mumkin emas
Siz xabalarga fayllarni biriktirishingiz mumkin emas
Siz fayllarni ko‘chirishingiz mumkin emas