˂
˃
Tarqatmalar statistikasi
Ko‘chiraman: [ 1 ]
Ko‘chirmoqdaman: [ 14 ]
Ko‘chirib bo‘ldim: [ 28 ]
 
     
 
 

yunusovjamshid ®

Jins:
Yigit
Staj:
1 oy 14 kun
Xabarlar:
30

Qayerdan: Toshkent

Taqiq:

--Venom | Веном | Venom
-- Chiqqan yili: 2018
Davlat:
Janr: Dahshatli, Jangari, Fantastika, Triller, Komiks
Davomiyligi: 01:47:10
Tarjima: Professional (dublyaj qilingan) (O'zbek tilida)--Rejissyor: Ruben Flyasher | Рубен Фляйшер | Ruben Fleischer--Rollarda: Tom Hardy, Mishel Uilyams, Marcella Bragio, Vudy Harrelson, Jenni Slate, Reese Ahmad, Mac Brandt, Ron Sepas Jones, Mishel Lee, Melora Walters--Tavsif: Agar bir kun sizni insoniy qobiliyatlarga ega bo'lgan simbiyotik mavjudot bilan uchrashtirishsa nima bo'ladi? Bu faqat Venom - simbiot mutlaqo shafqatsiz va u bilan kelishish mumkin emas. Lekin kelishish kerakmi? Lekin, ba'zida, yomon bo'lish juda ham yomon emas. Hattoki, yanada qiziqarli. Dunyoda juda ko'p qahramonlar bor! Biz Venommiz.-- Videoning sifati: WEB-DL 1080p
Video format:
Video: 1920x800, 23.976 fps, 2 150 kbps
Audio 1: 48 kHz, AC3, 2 ch, 160 kbps |
Audio 2: 48 kHz, AAC, 2 ch, 129 kbps |

Media Info

General
Unique ID : 201009106132537044990860002456811919760 (0x9738F216BDF88B69A38058380174D990)
Complete name : D:\проче\кино\Venom.2018.WEB-DL.1080p.Uz.Eng.mkv
Format : Matroska
Format version : Version 4 / Version 2
File size : 1.83 GiB
Duration : 1 h 47 min
Overall bit rate : 2 440 kb/s
Encoded date : UTC 2018-12-04 08:12:04
Writing application : mkvmerge v8.8.0 ('Wind at my back') 64bit
Writing library : libebml v1.3.3 + libmatroska v1.4.4
Video
ID : 1
Format : AVC
Format/Info : Advanced Video Codec
Format profile : High@L4.1
Format settings, CABAC : Yes
Format settings, ReFrames : 4 frames
Codec ID : V_MPEG4/ISO/AVC
Duration : 1 h 47 min
Bit rate : 2 150 kb/s
Width : 1 920 pixels
Height : 800 pixels
Display aspect ratio : 2.40:1
Frame rate mode : Constant
Frame rate : 23.976 (24000/1001) FPS
Color space : YUV
Chroma subsampling : 4:2:0
Bit depth : 8 bits
Scan type : Progressive
Bits/(Pixel*Frame) : 0.058
Stream size : 1.61 GiB (88%)
Writing library : x264 core 157
Encoding settings : cabac=1 / ref=4 / deblock=1:-1:-1 / analyse=0x3:0x133 / me=umh / subme=9 / psy=1 / psy_rd=1.00:0.15 / mixed_ref=1 / me_range=24 / chroma_me=1 / trellis=2 / 8x8dct=1 / cqm=0 / deadzone=21,11 / fast_pskip=0 / chroma_qp_offset=-3 / threads=18 / lookahead_threads=1 / sliced_threads=0 / nr=0 / decimate=1 / interlaced=0 / bluray_compat=0 / constrained_intra=0 / bframes=3 / b_pyramid=2 / b_adapt=2 / b_bias=0 / direct=3 / weightb=1 / open_gop=0 / weightp=2 / keyint=250 / keyint_min=23 / scenecut=40 / intra_refresh=0 / rc_lookahead=60 / rc=2pass / mbtree=1 / bitrate=2150 / ratetol=1.0 / qcomp=0.60 / qpmin=0 / qpmax=69 / qpstep=4 / cplxblur=20.0 / qblur=0.5 / vbv_maxrate=31250 / vbv_bufsize=31250 / nal_hrd=none / filler=0 / ip_ratio=1.40 / aq=1:1.00
Default : Yes
Forced : No
Audio #1
ID : 2
Format : AC-3
Format/Info : Audio Coding 3
Format settings, Endianness : Big
Codec ID : A_AC3
Duration : 1 h 47 min
Bit rate mode : Constant
Bit rate : 160 kb/s
Channel(s) : 2 channels
Channel positions : Front: L R
Sampling rate : 48.0 kHz
Frame rate : 31.250 FPS (1536 spf)
Bit depth : 16 bits
Compression mode : Lossy
Delay relative to video : -43 ms
Stream size : 123 MiB (7%)
Title : dublyaj
Language : Uzbek
Service kind : Complete Main
Default : Yes
Forced : Yes
Audio #2
ID : 3
Format : AAC
Format/Info : Advanced Audio Codec
Format profile : LC
Codec ID : A_AAC
Duration : 1 h 47 min
Bit rate : 129 kb/s
Channel(s) : 2 channels
Channel positions : Front: L R
Sampling rate : 48.0 kHz
Frame rate : 46.875 FPS (1024 spf)
Compression mode : Lossy
Delay relative to video : -43 ms
Stream size : 98.7 MiB (5%)
Language : English
Default : No
Forced : No


So‘ngi marta tahrirlandi: yunusovjamshid (2018-12-07 16:29), Jami tahrirlangan 3 marta
Profil ShX

yunusovjamshid ®

Jins:
Yigit
Staj:
1 oy 14 kun
Xabarlar:
30

Qayerdan: Toshkent

Taqiq:

хали кечро ADSL дан хам таркатма кушаман (тезлик хам ошади)

Mavzu yaratish 04-Dek-2018 12:35 (36 daqiqa o‘tgach)

Iqitibos

Profil ShX

Downloader

Jins:
Ko‘rsatilmagan
Staj:
1 oy 7 kun
Xabarlar:
8
Taqiq:

KIm ko'rdi? Ovozlar qanaqa? Fikr bildiringlar, iltimos...

Mavzu yaratish 07-Dek-2018 14:45 (3 kun o‘tgach)

Iqitibos

Profil ShX

rameo1988

Jins:
Ko‘rsatilmagan
Staj:
3 kun
Xabarlar:
3
Taqiq:

nega ko'chirib bo'lmaybdi

Mavzu yaratish 13-Dek-2018 11:19 (5 kun o‘tgach)

Iqitibos

Profil ShX

yunusovjamshid ®

Jins:
Yigit
Staj:
1 oy 14 kun
Xabarlar:
30

Qayerdan: Toshkent

Taqiq:

6970nega ko'chirib bo'lmaybdi
teredo урнатинг (установка килинг)

Mavzu yaratish 13-Dek-2018 19:09 (7 soat o‘tgach)

Iqitibos

Profil ShX
Xabarlarni ko‘rsatish:    

Hozirgi vaqt: 17-Dek 09:30

Vaqtlar farqi: UTC + 5



Siz mavzu yaratishingiz mumkin emas
Siz xabarlarga javob qaytarishingiz mumkin emas
Siz o‘z xabarlaringizni tahrirlashingiz mumkin emas
Siz o‘z xabarlaringizni o‘chirishingiz mumkin emas
Siz so‘rovlarda ovoz berishingiz mumkin emas
Siz xabalarga fayllarni biriktirishingiz mumkin emas
Siz fayllarni ko‘chirishingiz mumkin emas