˂
˃
Tarqatmalar statistikasi
Ko‘chirmoqdaman: [ 1 ]
Ko‘chirib bo‘ldim: [ 5 ]
 
     
 
 

yunusovjamshid ®

Jins:
Yigit
Staj:
1 oy 15 kun
Xabarlar:
30

Qayerdan: Toshkent

Taqiq:

--Venom | Веном | Venom
-- Chiqqan yili: 2018
Davlat:
Janr: Dahshatli, Jangari, Fantastika, Triller
Davomiyligi: 01:44:35
Tarjima: Professional (dublyaj qilingan) (Rus tilida)--Rejissyor: Ruben Flyasher | Рубен Фляйшер | Ruben Fleischer--Rollarda: Tom Hardy, Mishel Uilyams, Marcella Bragio, Vudy Harrelson, Jenni Slate, Reese Ahmad, Mac Brandt, Ron Sepas Jones, Mishel Lee, Melora Walters--Tavsif: Agar bir kun sizni insoniy qobiliyatlarga ega bo'lgan simbiyotik mavjudot bilan uchrashtirishsa nima bo'ladi? Bu faqat Venom - simbiot mutlaqo shafqatsiz va u bilan kelishish mumkin emas. Lekin kelishish kerakmi? Lekin, ba'zida, yomon bo'lish juda ham yomon emas. Hattoki, yanada qiziqarli. Dunyoda juda ko'p qahramonlar bor! Biz Venommiz-- Videoning sifati: Telecine + Reklama
Video format: AVI
Video: 720x288, 23.976 fps, XviD, ~1606 kbps
Audio : 48 kHz, AC3, 2 ch, ~384 kbps

Media Info

General
Complete name : K:\Movie\Venom.2O18.D.Telecine.14OOMB.avi
Format : AVI
Format/Info : Audio Video Interleave
File size : 1.46 GiB
Duration : 1 h 44 min
Overall bit rate : 2 000 kb/s
Writing application : VirtualDubMod 1.5.10.2 (build 2540/release)
Writing library : VirtualDubMod build 2540/release
Video
ID : 0
Format : MPEG-4 Visual
Format profile : Advanced Simple@L5
Format settings, BVOP : 2
Format settings, QPel : No
Format settings, GMC : No warppoints
Format settings, Matrix : Default (MPEG)
Codec ID : XVID
Codec ID/Hint : XviD
Duration : 1 h 44 min
Bit rate : 1 607 kb/s
Width : 720 pixels
Height : 288 pixels
Display aspect ratio : 2.500
Frame rate : 23.976 (24000/1001) FPS
Color space : YUV
Chroma subsampling : 4:2:0
Bit depth : 8 bits
Scan type : Progressive
Compression mode : Lossy
Bits/(Pixel*Frame) : 0.323
Stream size : 1.17 GiB (80%)
Writing library : XviD 1.2.1 (UTC 2008-12-04)
Audio
ID : 1
Format : AC-3
Format/Info : Audio Coding 3
Format settings, Endianness : Big
Codec ID : 2000
Duration : 1 h 44 min
Bit rate mode : Constant
Bit rate : 384 kb/s
Channel(s) : 2 channels
Channel positions : Front: L R
Sampling rate : 48.0 kHz
Frame rate : 31.250 FPS (1536 SPF)
Bit depth : 16 bits
Compression mode : Lossy
Stream size : 287 MiB (19%)
Alignment : Split accross interleaves
Interleave, duration : 42 ms (1.00 video frame)
Interleave, preload duration : 500 ms
Service kind : Complete Main
Profil ShX
Xabarlarni ko‘rsatish:    

Hozirgi vaqt: 18-Dek 00:08

Vaqtlar farqi: UTC + 5



Siz mavzu yaratishingiz mumkin emas
Siz xabarlarga javob qaytarishingiz mumkin emas
Siz o‘z xabarlaringizni tahrirlashingiz mumkin emas
Siz o‘z xabarlaringizni o‘chirishingiz mumkin emas
Siz so‘rovlarda ovoz berishingiz mumkin emas
Siz xabalarga fayllarni biriktirishingiz mumkin emas
Siz fayllarni ko‘chirishingiz mumkin emas