˂
˃
Tarqatmalar statistikasi
Ko‘chirmoqdaman: [ 7 ]
Ko‘chirib bo‘ldim: [ 1 ]
 
     
 
 

Asilbek 007 ®

Jins:
Ko‘rsatilmagan
Staj:
8 oy 1 kun
Xabarlar:
13
Taqiq:

Venom / Веном- Chiqqan Yili: 2018
Davlat: AQSH
Janr: Daxshatli, Fantastika, Jangari, Triller
Davomiyligi: 01:36:27
Tarjima: Dublyaj Qilingan [O'zbek Tilida]-Rejissyor: Ruben Flyasher-Rollarda: Tom Hardi, Mishel Uillyams, Marshello Brajio, Vudi Harrelson, Jenni Sleyt, Riz Ahmed, Mek Brendt, Ron Sepas Jons, Mishel Li, Melora Uolters-Tavsif: Agar bir kun sizni insoniy qobiliyatlarga ega bo'lgan simbiyotik mavjudot bilan uchrashtirishsa nima bo'ladi? Bu faqat Venom - simbiot mutlaqo shafqatsiz va u bilan kelishish mumkin emas. Lekin kelishish kerakmi? Lekin, ba'zida, yomon bo'lish juda ham yomon emas. Hattoki, yanada qiziqarli. Dunyoda juda ko'p qahramonlar bor! Biz Venommiz!- -Sifat: TVRip
Format: MP4
Video: AVC, 1048x576, 23.976 fps, ~939 kbps
Audio: 44.1 kHz, AAC-LC 2/0 (L,R) ch, ~196 kbps
-

MediaInfo

General
Complete name : C:\Users\User\Videos\Movavi Library\Venom .mp4
Format : MPEG-4
Format profile : Base Media
Codec ID : isom (isom/iso2/avc1/mp41)
File size : 792 MiB
Duration : 1 h 36 min
Overall bit rate : 1 142 kb/s
Writing application : Lavf57.71.100
Video
ID : 1
Format : AVC
Format/Info : Advanced Video Codec
Format profile : Main@L3.1
Format settings : CABAC / 1 Ref Frames
Format settings, CABAC : Yes
Format settings, ReFrames : 1 frame
Format settings, GOP : M=1, N=25
Codec ID : avc1
Codec ID/Info : Advanced Video Coding
Duration : 1 h 36 min
Bit rate : 939 kb/s
Width : 1 048 pixels
Height : 576 pixels
Display aspect ratio : 16:9
Frame rate : 23.976 (24000/1001) FPS
Color space : YUV
Chroma subsampling : 4:2:0
Bit depth : 8 bits
Scan type : Progressive
Bits/(Pixel*Frame) : 0.065
Stream size : 652 MiB (82%)
Codec configuration box : avcC
Audio
ID : 2
Format : AAC LC
Format/Info : Advanced Audio Codec Low Complexity
Codec ID : mp4a-40-2
Duration : 1 h 36 min
Bit rate mode : Constant
Bit rate : 196 kb/s
Channel(s) : 2 channels
Channel layout : L R
Sampling rate : 44.1 kHz
Frame rate : 43.066 FPS (1024 SPF)
Compression mode : Lossy
Stream size : 136 MiB (17%)
Default : Yes
Alternate group : 1

Profil ShX
Xabarlarni ko‘rsatish:    

Hozirgi vaqt: 17-Dek 10:48

Vaqtlar farqi: UTC + 5



Siz mavzu yaratishingiz mumkin emas
Siz xabarlarga javob qaytarishingiz mumkin emas
Siz o‘z xabarlaringizni tahrirlashingiz mumkin emas
Siz o‘z xabarlaringizni o‘chirishingiz mumkin emas
Siz so‘rovlarda ovoz berishingiz mumkin emas
Siz xabalarga fayllarni biriktirishingiz mumkin emas
Siz fayllarni ko‘chirishingiz mumkin emas