˂
˃
Tarqatmalar statistikasi
Ko‘chirmoqdaman: [ 2 ]
Ko‘chirib bo‘ldim: [ 7 ]
 
     
 
 

Soft-Release ®

Jins:
Yigit
Staj:
8 oy 27 kun
Xabarlar:
737

Qayerdan: Kattakurgan

Taqiq:

Qanday O'yin Bo'limida Reliz Qilish Va Yaratish Mumkin?
[Video Ko'rsatma]

MediaInfo


General
Complete name : D:\Комьпютер\Игры\[Video Ko'rsatma] Qanday O'yin Bo'limida Reliz Qilish Va Yaratish Mumkin\[Video Ko'rsatma] Qanday O'yin Bo'limida Reliz Qilish Va Yaratish Mumkin.mp4
Format : MPEG-4
Format profile : Base Media
Codec ID : isom (mp41)
File size : 202 MiB
Duration : 26 min 35 s
Overall bit rate : 1 061 kb/s
Encoded date : UTC 2018-11-18 07:50:53
Tagged date : UTC 2018-11-18 07:50:53
Writing application : BandiMp4Muxer 1.0
Video
ID : 1
Format : AVC
Format/Info : Advanced Video Codec
Format profile : Baseline@L3.2
Format settings : 1 Ref Frames
Format settings, CABAC : No
Format settings, ReFrames : 1 frame
Codec ID : avc1
Codec ID/Info : Advanced Video Coding
Duration : 26 min 35 s
Bit rate : 925 kb/s
Width : 1 360 pixels
Height : 768 pixels
Display aspect ratio : 16:9
Frame rate mode : Variable
Frame rate : 30.000 FPS
Minimum frame rate : 29.970 FPS
Maximum frame rate : 30.030 FPS
Color space : YUV
Chroma subsampling : 4:2:0
Bit depth : 8 bits
Scan type : Progressive
Bits/(Pixel*Frame) : 0.030
Stream size : 176 MiB (87%)
Language : English
Encoded date : UTC 2018-11-18 07:50:53
Tagged date : UTC 2018-11-18 07:50:53
Audio
ID : 2
Format : MPEG Audio
Format version : Version 1
Format profile : Layer 2
Codec ID : mp4a-6B
Duration : 26 min 35 s
Bit rate mode : Constant
Bit rate : 128 kb/s
Channel(s) : 2 channels
Sampling rate : 48.0 kHz
Compression mode : Lossy
Stream size : 24.3 MiB (12%)
Language : English
Encoded date : UTC 2018-11-18 07:50:53
Tagged date : UTC 2018-11-18 07:50:53



So‘ngi marta tahrirlandi: Soft-Release (2018-11-18 14:03), Jami tahrirlangan 1 marta
Profil ShX

logan7272

Jins:
Yigit
Staj:
8 oy 8 kun
Xabarlar:
9

Qayerdan: Namangan

Taqiq:

Boshqa darslar va video qo'llanmalar bo`limiga utkiza boladi

Mavzu yaratish 31-Okt-2018 15:29 (12 soat o‘tgach)

Iqitibos

Profil ShX

Azim_Foto

Jins:
Yigit
Staj:
1 yil 1 oy
Xabarlar:
1

Qayerdan: Yangiyul

Taqiq:

relizga gap yo Klass!

Mavzu yaratish 02-Noy-2018 15:31 (2 kun o‘tgach)

Iqitibos

Profil ShX

Soft-Release ®

Jins:
Yigit
Staj:
8 oy 27 kun
Xabarlar:
737

Qayerdan: Kattakurgan

Taqiq:

Torrent Fayl Yangilandi! Sababi Eski VideoRolik ning Ovozi Yo'q Edi Bu Bandicam ni Sozlamaganim Sababli Bo'lgandi!

Mavzu yaratish 18-Noy-2018 14:04 (15 kun o‘tgach)

Iqitibos

Profil ShX
Xabarlarni ko‘rsatish:    

Hozirgi vaqt: 11-Dek 03:38

Vaqtlar farqi: UTC + 5



Siz mavzu yaratishingiz mumkin emas
Siz xabarlarga javob qaytarishingiz mumkin emas
Siz o‘z xabarlaringizni tahrirlashingiz mumkin emas
Siz o‘z xabarlaringizni o‘chirishingiz mumkin emas
Siz so‘rovlarda ovoz berishingiz mumkin emas
Siz xabalarga fayllarni biriktirishingiz mumkin emas
Siz fayllarni ko‘chirishingiz mumkin emas