Gr@nd ®

Jins:
Yigit
Staj:
9 oy 27 kun
Xabarlar:
150

Qayerdan: Jizzax Forish

Taqiq:

- -VIJDON AMRI | По соображениям совести | HACKSAW RIDGE- Davlat: Avstraliya, AQSH
Janr: Jangari, drama, tarix
Chiqqan yili: 2017
Davomiyligi: 02:19:19-Tarjima: Professional (dublyaj qilingan) O'zbek tilida-Rejissiyor: Mel Gibson-Rollarda: Endryu Garfild, Sem Uortington, Tеrеza Palmеr, Lyuk Brеysi, Vins Von, Xyugo Uiving, Reychеl Griffits, Nataniel Buzolich, Richard Roksburg, Firess Dirani, Richard Piros, Djеykob Uornеr-Описание: Desmond bolaligidan shifokor bo'lishni orzu qilardi, lekin bu istakni bajarish uchun o'smir bo'lib qolmadi. Axir tibbiyot kollejida talabalar safiga kirish oson kechmadi. Keyin yigit boshqa yo'lga borishga qaror qildi. Yosh yigit Ikkinchi Jahon Urushi davrida o'z yurtiga yordam berib, qo'shin ichida ixtiyoriy ravishda boradi. Ammo yosh yigit o'zining o'ziga xos tamoyillariga ega edi, u zo'ravonlikka va qotillikka qat'iy qarshi chiqdi, hatto uning qo'lida qurol ham taqiqlangan edi. Shuning uchun odam tibbiy markazga jo'natildi. Boshqalar buni qo'rqoqlik deb bilishardi va doim uni mazax qilishdi. Lekin shunga qaramasdan, shifokor, aksincha, hamma narsani yarador askarlarning hayotini saqlab qolish uchun bir necha marta isbotlashga muvaffaq bo'ldi. Jang maydonidan yelkasiga tushganida, u jarohatlangan bolalarni olib ketishdan qo'rqmasdan olib yurdi. Ko'p qiyinchiliklar uning xizmati paytida boshdan kechirilishi kerak edi, lekin eng muhimi, o'z e'tiqodiga bo'lgan sadoqati edi.-Videoning sifati: BDRip
Формат видео: MKV
Video: MPEG4 Video (H264) / 1280x536 / 23.976fps / 3 595 Kbps
Audio: Dolby AC3 48000Hz / 6ch / 384 kbps Rus
Audio: Dolby AC3 48000Hz / 6ch / 448 kbps Eng
Audio: MP3 48000Hz / 2ch / 128kbps Uzb

MediaInfo

General
Unique ID : 183561974081043107335294815981914456361 (0x8A18C0109A883A1280CF8227DFDA8129)
Format : Matroska
Format version : Version 4 / Version 2
File size : 4.43 GiB
Duration : 2h 19mn
Overall bit rate : 4 556 Kbps
Movie name : Xusan_Gr@nd
Encoded date : UTC 2017-05-28 05:06:13
Writing application : mkvmerge v6.8.0 ('Theme for Great Cities') 64bit built on Mar 2 2014 21:34:26
Writing library : libebml v1.3.0 + libmatroska v1.4.1
Video
ID : 1
Format : AVC
Format/Info : Advanced Video Codec
Format profile : High@L4.1
Format settings, CABAC : Yes
Format settings, ReFrames : 10 frames
Codec ID : V_MPEG4/ISO/AVC
Duration : 2h 19mn
Bit rate : 3 595 Kbps
Width : 1 280 pixels
Height : 536 pixels
Display aspect ratio : 2.40:1
Frame rate : 23.976 fps
Color space : YUV
Chroma subsampling : 4:2:0
Bit depth : 8 bits
Scan type : Progressive
Bits/(Pixel*Frame) : 0.219
Stream size : 3.41 GiB (77%)
Title : potroks
Writing library : x264 core 146 r2538 121396c
Encoding settings : cabac=1 / ref=10 / deblock=1:-3:-3 / analyse=0x3:0x113 / me=umh / subme=11 / psy=1 / psy_rd=1.01:0.09 / mixed_ref=1 / me_range=56 / chroma_me=1 / trellis=2 / 8x8dct=1 / cqm=0 / deadzone=21,11 / fast_pskip=0 / chroma_qp_offset=-3 / threads=9 / lookahead_threads=2 / sliced_threads=0 / nr=0 / decimate=0 / interlaced=0 / bluray_compat=0 / constrained_intra=0 / bframes=11 / b_pyramid=2 / b_adapt=2 / b_bias=0 / direct=3 / weightb=1 / open_gop=0 / weightp=2 / keyint=240 / keyint_min=23 / scenecut=40 / intra_refresh=0 / rc_lookahead=60 / rc=2pass / mbtree=0 / bitrate=3595 / ratetol=1.0 / qcomp=0.70 / qpmin=0 / qpmax=69 / qpstep=4 / cplxblur=20.0 / qblur=0.5 / vbv_maxrate=14000 / vbv_bufsize=14000 / nal_hrd=none / filler=0 / ip_ratio=1.40 / pb_ratio=1.30 / aq=1:0.80
Language : English
Default : Yes
Forced : No
Audio #1
ID : 2
Format : AC-3
Format/Info : Audio Coding 3
Mode extension : CM (complete main)
Format settings, Endianness : Big
Codec ID : A_AC3
Duration : 2h 19mn
Bit rate mode : Constant
Bit rate : 384 Kbps
Channel(s) : 6 channels
Channel positions : Front: L C R, Side: L R, LFE
Sampling rate : 48.0 KHz
Bit depth : 16 bits
Compression mode : Lossy
Stream size : 383 MiB (8%)
Title : Dub | DD 5.1 @ 384 kbps - iTunes
Language : Russian
Default : Yes
Forced : No
Audio #2
ID : 3
Format : AC-3
Format/Info : Audio Coding 3
Mode extension : CM (complete main)
Format settings, Endianness : Big
Codec ID : A_AC3
Duration : 2h 19mn
Bit rate mode : Constant
Bit rate : 448 Kbps
Channel(s) : 6 channels
Channel positions : Front: L C R, Side: L R, LFE
Sampling rate : 48.0 KHz
Bit depth : 16 bits
Compression mode : Lossy
Stream size : 446 MiB (10%)
Title : Original | DD 5.1 @ 448 kbps
Language : English
Default : No
Forced : No
Audio #3
ID : 4
Format : MPEG Audio
Format version : Version 1
Format profile : Layer 3
Mode : Joint stereo
Mode extension : MS Stereo
Codec ID : A_MPEG/L3
Codec ID/Hint : MP3
Duration : 2h 19mn
Bit rate mode : Constant
Bit rate : 128 Kbps
Channel(s) : 2 channels
Sampling rate : 44.1 KHz
Compression mode : Lossy
Stream size : 128 MiB (3%)
Title : Xusan_Gr@nd
Writing library : LAME3.98.2
Language : Uzbek
Default : No
Forced : No
Profil ShX
Xabarlarni ko‘rsatish:    

Hozirgi vaqt: 23-Iyul 03:23

Vaqtlar farqi: UTC + 5



Siz mavzu yaratishingiz mumkin emas
Siz xabarlarga javob qaytarishingiz mumkin emas
Siz o‘z xabarlaringizni tahrirlashingiz mumkin emas
Siz o‘z xabarlaringizni o‘chirishingiz mumkin emas
Siz so‘rovlarda ovoz berishingiz mumkin emas
Siz xabalarga fayllarni biriktirishingiz mumkin emas
Siz fayllarni ko‘chirishingiz mumkin emas