˂
˃
Tarqatmalar statistikasi
Ko‘chirmoqdaman: [ 4 ]
Ko‘chirib bo‘ldim: [ 19 ]
 
     
 
 

yunusovjamshid ®

Jins:
Yigit
Staj:
1 oy 9 kun
Xabarlar:
29

Qayerdan: Toshkent

Taqiq:

--Vijdon amri | По соображениям совести | Hacksaw Ridge-- Chiqqan yili: 2016
Davlat:
Janr: biografiya, harbiy, drama, tarixiy
Davomiyligi: 02:19:19
Tarjima: Professional (dublyaj qilingan)--Rejissyor: Mel Gibson | Мэл Гибсон--Rollarda: Endryu Garfild, Sam Vortington, Teresa Palmer, Luqo Bracey, Vince Vaughn, Hugo Uiving, Rachel Griffits, Nathaniel Buzolich, Richard Roxburgh, Firass Dirani--Tavsif: Okinavadagi jangda xizmat qilgan Ikkinchi jahon urushidagi Amerika qo'shinidagi medik Desmond Doss odamlarni o'ldirishdan voz kechdi va Amerika tarixida birinchi marta mafkuraviy shov-shuvga aylandi.-- Videoning sifati: BDRip 1080p
Video format:
Video: 1920x800, 23.976 fp/s, 2 050 kb/s
Audio 1: AAC, 48000Hz, stereo, 88.2 kbps |
Audio 2: AAC, 44100Hz, stereo, 96.0 kbps |
Audio 3: AAC, 48000Hz, stereo, 127 kbps |

Media Info

General
Unique ID : 196491540131830489981645283139736114180 (0x93D2E4E377775D6DA4E0D7272B591404)
Complete name : K:\Movie\По соображениям совести 2016.1080p.BluRay.mkv
Format : Matroska
Format version : Version 4 / Version 2
File size : 2.30 GiB
Duration : 2 h 19 min
Overall bit rate : 2 364 kb/s
Encoded date : UTC 2018-03-08 17:36:20
Writing application : mkvmerge v8.3.0 ('Over the Horizon') 64bit
Writing library : libebml v1.3.1 + libmatroska v1.4.2
Video
ID : 1
Format : AVC
Format/Info : Advanced Video Codec
Format profile : High@L4.1
Format settings, CABAC : Yes
Format settings, RefFrames : 4 frames
Codec ID : V_MPEG4/ISO/AVC
Duration : 2 h 19 min
Bit rate : 2 050 kb/s
Width : 1 920 pixels
Height : 800 pixels
Display aspect ratio : 2.40:1
Frame rate mode : Constant
Frame rate : 23.976 FPS
Color space : YUV
Chroma subsampling : 4:2:0
Bit depth : 8 bits
Scan type : Progressive
Bits/(Pixel*Frame) : 0.056
Stream size : 1.99 GiB (87%)
Writing library : x264 core 148
Encoding settings : cabac=1 / ref=4 / deblock=1:-1:-1 / analyse=0x3:0x133 / me=umh / subme=9 / psy=1 / psy_rd=1.00:0.15 / mixed_ref=1 / me_range=24 / chroma_me=1 / trellis=2 / 8x8dct=1 / cqm=0 / deadzone=21,11 / fast_pskip=0 / chroma_qp_offset=-3 / threads=12 / lookahead_threads=1 / sliced_threads=0 / nr=0 / decimate=1 / interlaced=0 / bluray_compat=0 / constrained_intra=0 / bframes=3 / b_pyramid=2 / b_adapt=2 / b_bias=0 / direct=3 / weightb=1 / open_gop=0 / weightp=2 / keyint=250 / keyint_min=23 / scenecut=40 / intra_refresh=0 / rc_lookahead=60 / rc=2pass / mbtree=1 / bitrate=2050 / ratetol=1.0 / qcomp=0.60 / qpmin=0 / qpmax=69 / qpstep=4 / cplxblur=20.0 / qblur=0.5 / vbv_maxrate=31250 / vbv_bufsize=31250 / nal_hrd=none / filler=0 / ip_ratio=1.40 / aq=1:1.00
Default : Yes
Forced : No
Audio #1
ID : 2
Format : AAC
Format/Info : Advanced Audio Codec
Format profile : LC
Codec ID : A_AAC
Duration : 2 h 19 min
Bit rate : 88.2 kb/s
Channel(s) : 2 channels
Channel positions : Front: L R
Sampling rate : 48.0 kHz
Frame rate : 46.875 FPS (1024 SPF)
Compression mode : Lossy
Delay relative to video : -43 ms
Stream size : 87.9 MiB (4%)
Language : Russian
Default : Yes
Forced : No
Audio #2
ID : 3
Format : AAC
Format/Info : Advanced Audio Codec
Format profile : LC
Codec ID : A_AAC
Duration : 2 h 19 min
Bit rate : 96.0 kb/s
Channel(s) : 2 channels
Channel positions : Front: L R
Sampling rate : 44.1 kHz
Frame rate : 43.066 FPS (1024 SPF)
Compression mode : Lossy
Delay relative to video : -43 ms
Stream size : 95.6 MiB (4%)
Language : Uzbek
Default : No
Forced : No
Audio #3
ID : 4
Format : AAC
Format/Info : Advanced Audio Codec
Format profile : LC
Codec ID : A_AAC
Duration : 2 h 19 min
Bit rate : 127 kb/s
Channel(s) : 2 channels
Channel positions : Front: L R
Sampling rate : 48.0 kHz
Frame rate : 46.875 FPS (1024 SPF)
Compression mode : Lossy
Delay relative to video : -43 ms
Stream size : 127 MiB (5%)
Language : English
Default : No
Forced : No
Profil ShX

yunusovjamshid ®

Jins:
Yigit
Staj:
1 oy 9 kun
Xabarlar:
29

Qayerdan: Toshkent

Taqiq:

эртага эрталабдан тезлик кутарилади

Mavzu yaratish 16-Noy-2018 22:18 (43 daqiqa o‘tgach)

Iqitibos

Profil ShX
Xabarlarni ko‘rsatish:    

Hozirgi vaqt: 11-Dek 21:45

Vaqtlar farqi: UTC + 5



Siz mavzu yaratishingiz mumkin emas
Siz xabarlarga javob qaytarishingiz mumkin emas
Siz o‘z xabarlaringizni tahrirlashingiz mumkin emas
Siz o‘z xabarlaringizni o‘chirishingiz mumkin emas
Siz so‘rovlarda ovoz berishingiz mumkin emas
Siz xabalarga fayllarni biriktirishingiz mumkin emas
Siz fayllarni ko‘chirishingiz mumkin emas