Tarqatmalar statistikasi
Ko‘chiraman: [ 1 ]
 
     
 
 

MRLG ®

Jins:
Yigit
Staj:
11 oy 6 kun
Xabarlar:
379
Taqiq:

-Voy-Dod 2- FILM HAQIDA MA'LUMOT
Chiqqan yili: 2017
Davlat: O'zbekiston
Janri: Komediya, Oilaviy
Davomiyligi: 01:13:36
Tarjima: Original (Tarjima talab qilinmaydi)-Rejissiyor: Ozod Shams
Rollarda
Asqar Hikmatov, Muhammad Iso Abdulhayirov, Muqaddas Xoliqova, Sitora Alimjonova, Umid Soatov-Tavsif
Qaynota-qaynonangizda qasdingiz bormi? Unda ushbu film siz uchun. Bo`lajak qaynota kuyoviga faqat bir shart bilan qizini beradi ya`ni ichkuyov bo`lish sharti bilan. Yigit esa ayyor bo`ladi va qaynotasini bu shartidan qaytishi uchun qaynotasini uyida har xil shumliklarni boshlaydi. Siz o`sha bilgan voydod filmining 2-qismi. Yangi o`zbekcha kino-komediya.-Qo'shimcha ma'lumotlar-Sifat: HDRip
Format: AVI
Video: | Xvid | 640x264 | 25fps | 629kbps |
Audio: MP3 / 44100Hz / 2ch / 128kbps /-

MI

General
Complete name                  : D:\Кино\UZBEK KINO\Voy-Dod.2.2017.O.XviD.HDRip.avi
Format                         : AVI
Format/Info                    : Audio Video Interleave
File size                      : 404 MiB
Duration                       : 1 h 13 min
Overall bit rate               : 768 kb/s
Writing application            : VirtualDubMod 1.5.10.3 | www.virtualdub-fr.org || (build 2550/release)
Writing library                : VirtualDubMod build 2550/release
Video
ID                             : 0
Format                         : MPEG-4 Visual
Format profile                 : Advanced Simple@L5
Format settings, BVOP          : 2
Format settings, QPel          : No
Format settings, GMC           : No warppoints
Format settings, Matrix        : Custom
Codec ID                       : XVID
Codec ID/Hint                  : XviD
Duration                       : 1 h 13 min
Bit rate                       : 630 kb/s
Width                          : 640 pixels
Height                         : 296 pixels
Display aspect ratio           : 2.2:1
Frame rate                     : 25.000 FPS
Color space                    : YUV
Chroma subsampling             : 4:2:0
Bit depth                      : 8 bits
Scan type                      : Progressive
Compression mode               : Lossy
Bits/(Pixel*Frame)             : 0.133
Stream size                    : 332 MiB (82%)
Writing library                : XviD 1.2.1 (UTC 2008-12-04)
Audio
ID                             : 1
Format                         : MPEG Audio
Format version                 : Version 1
Format profile                 : Layer 3
Codec ID                       : 55
Codec ID/Hint                  : MP3
Duration                       : 1 h 13 min
Bit rate mode                  : Constant
Bit rate                       : 128 kb/s
Channel(s)                     : 2 channels
Sampling rate                  : 44.1 kHz
Compression mode               : Lossy
Stream size                    : 67.4 MiB (17%)
Alignment                      : Split accross interleaves
Interleave, duration           : 40  ms (1.00 video frame)
Interleave, preload duration   : 500  ms
Writing library                : LAME3.99r
Encoding settings              : -m s -V 4 -q 0 -lowpass 17 -b 128

Miniatyura

FILM LAVHALARI
Profil ShX

UZTEXNO

Jins:
Yigit
Staj:
10 oy 30 kun
Xabarlar:
24
Taqiq:

MRLG, Komediya zor lekin sal bachkanaroq chiqganda ...

Mavzu yaratish 08-Okt-2017 13:29 (32 daqiqa o‘tgach)

Iqitibos

Profil ShX

MRLG ®

Jins:
Yigit
Staj:
11 oy 6 kun
Xabarlar:
379
Taqiq:

SanJaR_Uz, Hozirgi paytda o`zi bachkana chiqmagan o`zbek kinosi bormi?

Mavzu yaratish 08-Okt-2017 13:37 (7 daqiqa o‘tgach)

Iqitibos

Profil ShX

UZTEXNO

Jins:
Yigit
Staj:
10 oy 30 kun
Xabarlar:
24
Taqiq:

MRLG, har yaxshining bir yomoni boladida akam )

Mavzu yaratish 08-Okt-2017 14:06 (29 daqiqa o‘tgach)

Iqitibos

Profil ShX
Xabarlarni ko‘rsatish:    

Hozirgi vaqt: 22-Iyul 19:07

Vaqtlar farqi: UTC + 5



Siz mavzu yaratishingiz mumkin emas
Siz xabarlarga javob qaytarishingiz mumkin emas
Siz o‘z xabarlaringizni tahrirlashingiz mumkin emas
Siz o‘z xabarlaringizni o‘chirishingiz mumkin emas
Siz so‘rovlarda ovoz berishingiz mumkin emas
Siz xabalarga fayllarni biriktirishingiz mumkin emas
Siz fayllarni ko‘chirishingiz mumkin emas