˂
˃
 

BoboMUROD ®

Jins:
Ko‘rsatilmagan
Staj:
1 yil 1 oy
Xabarlar:
13
Taqiq:

- -Warkraft / Warcraft- Davlat: AQSH, Xitoy Kanada, Yaponiya
Janr: Fentezi, jangari, sarguzasht
Chiqqan yili: 2016
Davomiyligi: 02:03:07-Перевод: Профессиональный (дублированный) O'zbek tilida
Rejissiyor: Dyunkan Jons / Duncan Jones-Rollarda: Trevis Fimmel, Ben Foster, Petton, Tobi Kebbel, Robert Kazinski, Dominik Kuper, Deniel Vu, Klensi Braun-Описание: Веками магия и неприступные стены защищали людей от любых напастей. Но древнее зло, побежденное и забытое тысячелетия назад, пробудилось.В самом сердце королевства открылся темный портал, и раса невиданных существ наводнила земли Азерота. Так начались события, призванные навсегда изменить судьбу этого мира.-Качество видео: BDRip
Формат видео: MKV-Video: MPEG4 Video (H264) L4.o yuv420p 1916x720 4 404 kb/s
Audio: AAC 44100Hz stereo Rus
Audio: MP3 48000Hz 2ch 128kbps Uzb
-

MediaInfo

General
Unique ID : 182232372492860127610936202932060828103 (0x8918ADA534638D1DA5D4CF054CD231C7)
Complete name : D:\Opera Next\UZB TILIDA\Warcraft [UZB TILIDA].mkv
Format : Matroska
Format version : Version 4 / Version 2
File size : 4.31 GiB
Duration : 2 h 3 min
Overall bit rate : 5 015 kb/s
Movie name : Xusan_Gr@nd
Encoded date : UTC 2016-08-04 15:24:55
Writing application : mkvmerge v6.8.0 ('Theme for Great Cities') 64bit built on Mar 2 2014 21:34:26
Writing library : libebml v1.3.0 + libmatroska v1.4.1
Video
ID : 1
Format : AVC
Format/Info : Advanced Video Codec
Format profile : High@L4
Format settings, CABAC : Yes
Format settings, ReFrames : 5 frames
Codec ID : V_MPEG4/ISO/AVC
Duration : 2 h 3 min
Bit rate : 4 404 kb/s
Width : 1 916 pixels
Height : 784 pixels
Display aspect ratio : 2.40:1
Frame rate mode : Constant
Frame rate : 23.976 FPS
Color space : YUV
Chroma subsampling : 4:2:0
Bit depth : 8 bits
Scan type : Progressive
Bits/(Pixel*Frame) : 0.122
Stream size : 3.79 GiB (88%)
Language : English
Default : No
Forced : No
Color range : Limited
Color primaries : BT.709
Transfer characteristics : BT.709
Matrix coefficients : BT.709
Audio #1
ID : 2
Format : AC-3
Format/Info : Audio Coding 3
Format settings, Endianness : Big
Codec ID : A_AC3
Duration : 2 h 3 min
Bit rate mode : Constant
Bit rate : 384 kb/s
Channel(s) : 6 channels
Channel positions : Front: L C R, Side: L R, LFE
Sampling rate : 48.0 kHz
Frame rate : 31.250 FPS (1536 spf)
Bit depth : 16 bits
Compression mode : Lossy
Stream size : 338 MiB (8%)
Title : DUB
Language : Russian
Service kind : Complete Main
Default : No
Forced : No
Audio #2
ID : 3
Format : MPEG Audio
Format version : Version 1
Format profile : Layer 3
Mode : Joint stereo
Mode extension : MS Stereo
Codec ID : A_MPEG/L3
Codec ID/Hint : MP3
Duration : 2 h 3 min
Bit rate mode : Constant
Bit rate : 128 kb/s
Channel(s) : 2 channels
Sampling rate : 44.1 kHz
Compression mode : Lossy
Stream size : 113 MiB (3%)
Title : Xusan_Gr@nd
Writing library : LAME3.98.2
Language : Uzbek
Default : No
Forced : No
Menu
00:00:00.000 : en:Chapter 1
00:09:27.000 : en:Chapter 2
00:15:51.000 : en:Chapter 3
00:22:38.000 : en:Chapter 4
00:29:18.000 : en:Chapter 5
00:38:44.000 : en:Chapter 6
00:46:45.000 : en:Chapter 7
00:53:04.000 : en:Chapter 8
00:56:19.000 : en:Chapter 9
01:02:45.000 : en:Chapter 10
01:07:50.000 : en:Chapter 11
01:12:26.000 : en:Chapter 12
01:17:14.000 : en:Chapter 13
01:22:47.000 : en:Chapter 14
01:26:34.000 : en:Chapter 15
01:32:31.000 : en:Chapter 16
01:40:23.000 : en:Chapter 17
01:47:38.000 : en:Chapter 18
01:51:13.000 : en:Chapter 19
01:53:59.000 : en:Chapter 20
Profil ShX

Frozen

Jins:
Yigit
Staj:
1 yil 3 oy
Xabarlar:
58

Qayerdan: Toshkent, Navoi

Taqiq:

O`zbek tilidami?

Mavzu yaratish 10-Okt-2017 21:29 (8 daqiqa o‘tgach)

Iqitibos

Profil ShX

Frozen

Jins:
Yigit
Staj:
1 yil 3 oy
Xabarlar:
58

Qayerdan: Toshkent, Navoi

Taqiq:

poster uchun [img] ni o`rniga [img=right] deb yozing

Mavzu yaratish 10-Okt-2017 21:30 (1 daqiqa o‘tgach)

Iqitibos

Profil ShX

Vampire_1987

Jins:
Ko‘rsatilmagan
Staj:
1 yil 2 oy
Xabarlar:
115
Taqiq:

BoboMUROD, Salom Filim Qayerdan Olingan Yani Uzb Tildagi Video Va Bular Bilan Tanishib Chiqing http://uztracker.me/viewtopic.php?t=115&view=newest#newest

Mavzu yaratish 10-Okt-2017 21:37 (6 daqiqa o‘tgach)

Iqitibos

Profil ShX

MRLG

Jins:
Yigit
Staj:
1 yil 3 oy
Xabarlar:
523
Taqiq:

Vampire_1987, Movie name : Xusan_Gr@nd reliz kimnikiligi aniq :)

Mavzu yaratish 10-Okt-2017 21:38 (1 daqiqa o‘tgach)

Iqitibos

Profil ShX

BoboMUROD ®

Jins:
Ko‘rsatilmagan
Staj:
1 yil 1 oy
Xabarlar:
13
Taqiq:

Frozen, Ha O`zbek va Rus tilida

Mavzu yaratish 10-Okt-2017 21:43 (5 daqiqa o‘tgach)

Iqitibos

Profil ShX

Gr@nd

Jins:
Yigit
Staj:
1 yil 1 oy
Xabarlar:
158

Qayerdan: Jizzax Forish

Taqiq:

MRLG, Juda tez sezasiz :)

Mavzu yaratish 10-Okt-2017 22:48 (1 soat 4 daqiqa o‘tgach)

Iqitibos

Profil ShX
Xabarlarni ko‘rsatish:    

Hozirgi vaqt: 18-Noy 17:37

Vaqtlar farqi: UTC + 5



Siz mavzu yaratishingiz mumkin emas
Siz xabarlarga javob qaytarishingiz mumkin emas
Siz o‘z xabarlaringizni tahrirlashingiz mumkin emas
Siz o‘z xabarlaringizni o‘chirishingiz mumkin emas
Siz so‘rovlarda ovoz berishingiz mumkin emas
Siz xabalarga fayllarni biriktirishingiz mumkin emas
Siz fayllarni ko‘chirishingiz mumkin emas