˂
˃
Tarqatmalar statistikasi
Ko‘chirmoqdaman: [ 7 ]
Ko‘chirib bo‘ldim: [ 36 ]
 
     
 
 

azizbek ®

Jins:
Yigit
Staj:
1 yil
Xabarlar:
139

Qayerdan: Surxondaryo

Taqiq:

-Xan Solo: Yulduzlar jangi / Хан Соло: Звёздные Войны. Истории / Solo: A Star Wars Story - «Never tell him the odds» - Chiqqan yili: 2018
Davlat: AQSh
Janr: fantastika, fentezi, jangari, sarguzasht
Davomiyligi: 02:14:47
Tarjima: Professional (Sevimli telekanali) o'zbek tilida-Rejissyor: Ron Xovard
Rollarda: Alden Erenrayk, Jonas Suotamo, Vudi Xarrison, Emiliy Klarke, Donald Glover, Thandie Nyuton, Fiva Uoller, Pavlus Bettany, Jon Favreau, Linda Hunt-Tavsif:Film yosh kosmik kallakesar Xan Solo va uning sodiq hamroxi Chubakkining qanday qilib eng tezkor uchuvchi va gallaktikaning eng ayyor kontrabandistiga aylanishi haqida hikoya qiladi-Byudjet: $300 000 000
Daromad: $392 953 681
Dunyo premyerasi: 10.05.2018
Yosh chegarasi: 12+-Videoning sifati: BDRip
Video format: MKV-Video: AVC, 1024x428, 23.976fps, 1939 kb/s
Audio #1: MP3, 48000Hz, stereo, 128 kb/s, Sevimli telekanali, o'zbek tilida
Audio #2: Dolby AC3, 48000Hz, 6ch, 384 kb/s, rus tilida
Audio #3: Dolby AC3, 48000Hz, 6ch, 448 kb/s, ingliz tilida
Subtitl: Rus tilida, ingliz tilida

Media Info

General
Unique ID : 7992495217503902385346598205918882563 (0x6034C70323205AA93D7EB4243B92B03)
Complete name : D:\MEDIA\kino\uztacker\Xan.Solo.yulduzlar.jani.2018.BDRip.mkv
Format : Matroska
Format version : Version 4
File size : 2.73 GiB
Duration : 2 h 14 min
Overall bit rate : 2 896 kb/s
Movie name : Solo.A.Star.Wars.Story.2018 #TorpedoUK#
Encoded date : UTC 2018-09-23 05:21:57
Writing application : mkvmerge v20.0.0 ('I Am The Sun') 64-bit
Writing library : libebml v1.3.5 + libmatroska v1.4.8
Cover : Yes
Attachments : cover_land.jpg / small_cover.jpg / small_cover_land.jpg / cover.jpg
Video
ID : 1
Format : AVC
Format/Info : Advanced Video Codec
Format profile : High@L4.1
Format settings : CABAC / 10 Ref Frames
Format settings, CABAC : Yes
Format settings, ReFrames : 10 frames
Codec ID : V_MPEG4/ISO/AVC
Duration : 2 h 14 min
Bit rate : 1 939 kb/s
Width : 1 024 pixels
Height : 428 pixels
Display aspect ratio : 2.40:1
Frame rate mode : Constant
Frame rate : 23.976 (24000/1001) FPS
Color space : YUV
Chroma subsampling : 4:2:0
Bit depth : 8 bits
Scan type : Progressive
Bits/(Pixel*Frame) : 0.185
Stream size : 1.82 GiB (67%)
Writing library : x264 core 146 r2538 121396c
Encoding settings : cabac=1 / ref=10 / deblock=1:-3:-3 / analyse=0x3:0x113 / me=umh / subme=11 / psy=1 / psy_rd=0.98:0.04 / mixed_ref=1 / me_range=48 / chroma_me=1 / trellis=2 / 8x8dct=1 / cqm=0 / deadzone=21,11 / fast_pskip=1 / chroma_qp_offset=-3 / threads=6 / lookahead_threads=1 / sliced_threads=0 / nr=0 / decimate=1 / interlaced=0 / bluray_compat=0 / constrained_intra=0 / bframes=10 / b_pyramid=2 / b_adapt=2 / b_bias=0 / direct=3 / weightb=1 / open_gop=0 / weightp=2 / keyint=240 / keyint_min=23 / scenecut=40 / intra_refresh=0 / rc_lookahead=40 / rc=2pass / mbtree=0 / bitrate=1939 / ratetol=1.0 / qcomp=0.60 / qpmin=0 / qpmax=69 / qpstep=4 / cplxblur=20.0 / qblur=0.5 / vbv_maxrate=50000 / vbv_bufsize=62500 / nal_hrd=none / filler=0 / ip_ratio=1.40 / pb_ratio=1.30 / aq=1:1.00
Language : English
Default : Yes
Forced : No
Audio #1
ID : 2
Format : MPEG Audio
Format version : Version 1
Format profile : Layer 3
Format settings : Joint stereo / MS Stereo
Codec ID : A_MPEG/L3
Codec ID/Hint : MP3
Duration : 2 h 14 min
Bit rate mode : Constant
Bit rate : 128 kb/s
Channel(s) : 2 channels
Sampling rate : 48.0 kHz
Frame rate : 41.667 FPS (1152 SPF)
Compression mode : Lossy
Stream size : 123 MiB (4%)
Title : SevimliTV
Language : Uzbek
Default : Yes
Forced : Yes
Audio #2
ID : 3
Format : AC-3
Format/Info : Audio Coding 3
Commercial name : Dolby Digital
Codec ID : A_AC3
Duration : 2 h 14 min
Bit rate mode : Constant
Bit rate : 384 kb/s
Channel(s) : 6 channels
Channel layout : L R C LFE Ls Rs
Sampling rate : 48.0 kHz
Frame rate : 31.250 FPS (1536 SPF)
Bit depth : 16 bits
Compression mode : Lossy
Stream size : 371 MiB (13%)
Title : [iTunes]
Language : Russian
Service kind : Complete Main
Default : No
Forced : No
Audio #3
ID : 4
Format : AC-3
Format/Info : Audio Coding 3
Commercial name : Dolby Digital
Codec ID : A_AC3
Duration : 2 h 14 min
Bit rate mode : Constant
Bit rate : 448 kb/s
Channel(s) : 6 channels
Channel layout : L R C LFE Ls Rs
Sampling rate : 48.0 kHz
Frame rate : 31.250 FPS (1536 SPF)
Bit depth : 16 bits
Compression mode : Lossy
Stream size : 432 MiB (15%)
Title : [Original]
Language : English
Service kind : Complete Main
Default : No
Forced : No
Text #1
ID : 5
Format : UTF-8
Codec ID : S_TEXT/UTF8
Codec ID/Info : UTF-8 Plain Text
Duration : 1 h 20 min
Bit rate : 2 b/s
Count of elements : 25
Stream size : 1.36 KiB (0%)
Title : Forced
Language : Russian
Default : Yes
Forced : No
Text #2
ID : 6
Format : UTF-8
Codec ID : S_TEXT/UTF8
Codec ID/Info : UTF-8 Plain Text
Duration : 2 h 6 min
Bit rate : 83 b/s
Count of elements : 1829
Stream size : 77.5 KiB (0%)
Title : Full
Language : Russian
Default : No
Forced : No
Text #3
ID : 7
Format : UTF-8
Codec ID : S_TEXT/UTF8
Codec ID/Info : UTF-8 Plain Text
Duration : 2 h 5 min
Bit rate : 56 b/s
Count of elements : 1957
Stream size : 51.9 KiB (0%)
Title : Full
Language : English
Default : No
Forced : No
Text #4
ID : 8
Format : UTF-8
Codec ID : S_TEXT/UTF8
Codec ID/Info : UTF-8 Plain Text
Duration : 2 h 5 min
Bit rate : 63 b/s
Count of elements : 2232
Stream size : 58.5 KiB (0%)
Title : SDH
Language : English
Default : No
Forced : No
Menu
00:00:00.000 : en:Opening Credits
00:00:53.845 : en:Streets of Corellia
00:02:10.213 : en:Qi'ra
00:03:53.150 : en:Den of The White Worms
00:06:00.485 : en:Corellian Speeder Chase
00:09:27.567 : en:Coronet Spaceport
00:13:16.045 : en:Recruitment
00:14:14.020 : en:Mimban Battlefield
00:16:12.263 : en:None-of-Your-Business Company
00:19:45.101 : en:The Beast
00:22:43.821 : en:Mimban Escape
00:24:37.267 : en:Vandor
00:27:00.035 : en:Camfire Stories
00:30:02.926 : en:Conveyex Heist
00:32:54.681 : en:Marauder Attack
00:39:09.764 : en:"You're in This Life For Good"
00:41:59.225 : en:The Yacht
00:43:20.181 : en:Dryden Vos
00:44:32.128 : en:Reunion
00:48:03.756 : en:Deal with Crimson Dawn
00:51:58.324 : en:The Lodge
00:53:17.528 : en:Full Sabacc
00:57:23.523 : en:Lando and L3
01:00:16.780 : en:Millennium Falcon
01:02:40.882 : en:"Buckle Up, Baby"
01:04:51.262 : en:"People Are Predictable"
01:05:29.509 : en:Han and Qi'ra
01:07:12.028 : en:"Trust No One"
01:08:05.915 : en:Not Cpmpatible
01:10:00.113 : en:Arrival on Kessel
01:12:44.193 : en:Into the Mines
01:14:40.851 : en:Revolt
01:18:30.873 : en:Kessel Shootout
01:23:15.741 : en:Into the Maelstrom
01:26:32.646 : en:Kessel Run
01:30:33.136 : en:Escaping the Maw
01:35:19.672 : en:Savareen
01:37:04.861 : en:The Good Guy
01:38:52.802 : en:Marauders Return
01:41:18.531 : en:Enfys Nest
01:43:02.676 : en:One Last Score
01:45:27.821 : en:The Delivery
01:46:32.177 : en:Explosive Stuff
01:49:45.996 : en:Double-Crossings
01:53:33.890 : en:Duel with Dryden
01:57:13.902 : en:Secret Leader
01:58:55.128 : en:Showdown
02:01:34.829 : en:Rebellion's Dawn
02:03:20.893 : en:Sabacc Rematch
02:06:09.353 : en:End Credits
02:14:30.000 : en:HDChina

Treyler - rus tilida(mover.uz)



So‘ngi marta tahrirlandi: azizbek (2018-09-23 11:16), Jami tahrirlangan 1 marta
Profil ShX

MRLG

Jins:
Yigit
Staj:
1 yil 3 oy
Xabarlar:
526
Taqiq:

6208Audio #1: MP3, 48000Hz, stereo, 128 kb/s, MY5 telekanali, o'zbek tilida
Shuni to'g'rilang.

Mavzu yaratish 23-Sen-2018 11:14 (3 daqiqa o‘tgach)

Iqitibos

Profil ShX

azizbek ®

Jins:
Yigit
Staj:
1 yil
Xabarlar:
139

Qayerdan: Surxondaryo

Taqiq:

MRLG, to'g'irladim

Mavzu yaratish 23-Sen-2018 11:17 (2 daqiqa o‘tgach)

Iqitibos

Profil ShX
Xabarlarni ko‘rsatish:    

Hozirgi vaqt: 11-Dek 20:25

Vaqtlar farqi: UTC + 5



Siz mavzu yaratishingiz mumkin emas
Siz xabarlarga javob qaytarishingiz mumkin emas
Siz o‘z xabarlaringizni tahrirlashingiz mumkin emas
Siz o‘z xabarlaringizni o‘chirishingiz mumkin emas
Siz so‘rovlarda ovoz berishingiz mumkin emas
Siz xabalarga fayllarni biriktirishingiz mumkin emas
Siz fayllarni ko‘chirishingiz mumkin emas