˂
˃
Tarqatmalar statistikasi
Ko‘chiraman: [ 1 ]
Ko‘chirmoqdaman: [ 13 ]
Ko‘chirib bo‘ldim: [ 34 ]
 
     
 
 

AxeL ®

Jins:
Yigit
Staj:
8 oy 24 kun
Xabarlar:
610

Qayerdan: Gronland, Norway

Taqiq:

-Yahshi bo'lish osonmi? 3 / Гадкий я 3 / Despicable Me 3- Chiqqan yili: 2017
Davlat: AQSh
Janr: multfilm, fantastika, fantaziya, jangari, kulguli
Davomiyligi: 01:29:40
Tarjima: Professional (Ko'p ovozli kadr ortidan) O'zbek tilida
Subtitle: Inglizcha-Rejissyor: Kayl Balda, Pyer Koffman, Erik Guilon-Ssenariy: Sinko Pol, Ken Daurio
Prodyuser: Janet Xili, Brett Xoffman, Kristofer Meledandri
Kompozitor: Eytor Pereyra, Farrel Uilyams
Rassom: Olivye Adam-Rollarni ovozlashtirganlar: Stiv Karell, Kristen Uig, Trey Parker, Miranda Kogsrov, Dena Gayer, Nev Sharrel, Pyer Koffan, Stiv Kugan, Juli Endrius, Jenni Sleyt-Tavsif: Uchinchi qismga ham yetib keldi. Katta superagent, o'lik go'zallik va abadiy minionlar
yo'lda. Tayyor bo'l. Ular dunyoni boshqarishadi.-AQShda ishlab topilgan: $264 624 300
Muhlislari: 7.57 mln (Rossiya)
Premyera (Dunyo bo'ylab): 14 iyun, 2017
DVDga reliz: 30 oktyabr, 2017, «ND Play»-Videoning sifati: BDRip-AVC
Video format: MKV
Video: MPEG4 Video (H264) 1024x428 23.976fps 2 153 Kbps
Audio #1: Dolby AC3 48000Hz 6ch 384kbps Rus tilida
Audio #2: Dolby AC3 48000Hz 6ch 448kbps Ingliz tilida
Audio #3: AAC 48000Hz stereo 2ch 128 kbps O'zbek tilida

Media Info

General
Unique ID : 169485551653765880355439342857895704978 (0x7F81BADB3109DFA272B69B766E267992)
Complete name : D:\Films\Multfilms\HD Video\Yahshi_bo'lish_osonmi_3_BDRip_AVC_2017.mkv
Format : Matroska
Format version : Version 4 / Version 2
File size : 1.95 GiB
Duration : 1h 29mn
Overall bit rate : 3 116 Kbps
Movie name : Despicable.Me.3.2017 - TorpedoUK
Encoded date : UTC 2018-10-03 16:08:40
Writing application : mkvmerge v22.0.0 ('At The End Of The World') 64-bit
Writing library : libebml v1.3.5 + libmatroska v1.4.8
Attachements : kinopoisk.ru-Despicable-Me-3-2987410.png
Video
ID : 1
Format : AVC
Format/Info : Advanced Video Codec
Format profile : High@L4.1
Format settings, CABAC : Yes
Format settings, ReFrames : 10 frames
Codec ID : V_MPEG4/ISO/AVC
Duration : 1h 29mn
Bit rate : 2 153 Kbps
Width : 1 024 pixels
Height : 428 pixels
Display aspect ratio : 2.40:1
Frame rate mode : Constant
Frame rate : 23.976 (24000/1001) fps
Color space : YUV
Chroma subsampling : 4:2:0
Bit depth : 8 bits
Scan type : Progressive
Bits/(Pixel*Frame) : 0.205
Stream size : 1.35 GiB (69%)
Writing library : x264 core 146 r2538 121396c
Encoding settings : cabac=1 / ref=10 / deblock=1:-3:-3 / analyse=0x3:0x133 / me=umh / subme=11 / psy=1 / psy_rd=1.00:0.07 / mixed_ref=1 / me_range=48 / chroma_me=1 / trellis=2 / 8x8dct=1 / cqm=0 / deadzone=21,11 / fast_pskip=0 / chroma_qp_offset=-3 / threads=6 / lookahead_threads=1 / sliced_threads=0 / nr=0 / decimate=0 / interlaced=0 / bluray_compat=0 / constrained_intra=0 / bframes=10 / b_pyramid=2 / b_adapt=2 / b_bias=0 / direct=3 / weightb=1 / open_gop=0 / weightp=2 / keyint=240 / keyint_min=23 / scenecut=40 / intra_refresh=0 / rc_lookahead=40 / rc=2pass / mbtree=0 / bitrate=2153 / ratetol=1.0 / qcomp=0.60 / qpmin=0 / qpmax=69 / qpstep=4 / cplxblur=20.0 / qblur=0.5 / vbv_maxrate=50000 / vbv_bufsize=62500 / nal_hrd=none / filler=0 / ip_ratio=1.40 / pb_ratio=1.30 / aq=1:1.00
Language : English
Default : Yes
Forced : No
Audio #1
ID : 2
Format : AC-3
Format/Info : Audio Coding 3
Mode extension : CM (complete main)
Format settings, Endianness : Big
Codec ID : A_AC3
Duration : 1h 29mn
Bit rate mode : Constant
Bit rate : 384 Kbps
Channel(s) : 6 channels
Channel positions : Front: L C R, Side: L R, LFE
Sampling rate : 48.0 KHz
Frame rate : 31.250 fps (1536 spf)
Compression mode : Lossy
Stream size : 246 MiB (12%)
Title : Rus tilida (DUB) AxeL
Language : Russian
Default : Yes
Forced : No
Audio #2
ID : 3
Format : AC-3
Format/Info : Audio Coding 3
Mode extension : CM (complete main)
Format settings, Endianness : Big
Codec ID : A_AC3
Duration : 1h 29mn
Bit rate mode : Constant
Bit rate : 448 Kbps
Channel(s) : 6 channels
Channel positions : Front: L C R, Side: L R, LFE
Sampling rate : 48.0 KHz
Frame rate : 31.250 fps (1536 spf)
Compression mode : Lossy
Stream size : 287 MiB (14%)
Title : Ingliz tilida (DUB) AxeL
Language : English
Default : No
Forced : No
Audio #3
ID : 5
Format : AAC
Format/Info : Advanced Audio Codec
Format profile : LC
Codec ID : A_AAC
Duration : 1h 29mn
Bit rate : 128 Kbps
Channel(s) : 2 channels
Channel positions : Front: L R
Sampling rate : 48.0 KHz
Frame rate : 46.875 fps (1024 spf)
Compression mode : Lossy
Stream size : 82.1 MiB (4%)
Title : O'zbek tilida (DUB) AxeL
Language : Uzbek
Default : No
Forced : No
Text
ID : 4
Format : UTF-8
Codec ID : S_TEXT/UTF8
Codec ID/Info : UTF-8 Plain Text
Duration : 1h 21mn
Bit rate : 65 bps
Count of elements : 1523
Stream size : 39.1 KiB (0%)
Title : SDH
Language : English
Default : No
Forced : No
--


So‘ngi marta tahrirlandi: AxeL (2018-10-09 11:20), Jami tahrirlangan 1 marta
Profil ShX

AxeL ®

Jins:
Yigit
Staj:
8 oy 24 kun
Xabarlar:
610

Qayerdan: Gronland, Norway

Taqiq:

Ana syurpriz, multfilmni rahmat va like tugmalarini bosish orqali ko'chirib olishinglar mumkin!
PS: Multfim 00:23:40 dan boshlab 00:44:27 gacha rus tilida davom etdi. Sababi ko'chirib olgan joyimdagi faylda qandaydir xatolik bor ekan, keltirilgan noqulaylik uchun uzr so'raymiz!

Mavzu yaratish 03-Okt-2018 21:58 (6 daqiqa o‘tgach)

Iqitibos

Profil ShX

MRLG

Jins:
Yigit
Staj:
1 yil 3 oy
Xabarlar:
526
Taqiq:

Mediabayda shu multfilm bor vaqti ko'chirib olmagan edim. kecha qarasam o'chirib tashlashibdi.

Mavzu yaratish 04-Okt-2018 17:53 (19 soat o‘tgach)

Iqitibos

Profil ShX

AxeL ®

Jins:
Yigit
Staj:
8 oy 24 kun
Xabarlar:
610

Qayerdan: Gronland, Norway

Taqiq:

6296Mediabayda shu multfilm bor vaqti ko'chirib olmagan edim. kecha qarasam o'chirib tashlashibdi.
exx afsus, men qanaqadir topfilm degan saytdan olgandim, konvert qilishgan va dabdalasinyam chiqarishgan

Mavzu yaratish 04-Okt-2018 18:03 (9 daqiqa o‘tgach)

Iqitibos

Profil ShX

Spicger

Jins:
Yigit
Staj:
2 oy 12 kun
Xabarlar:
38

Qayerdan: Chinoz

Taqiq:

AxeL, boya chatda chaqirganim shu relizingizda siddan chiqing dimoqchidim bizam sidda turib tezlik berelik :))

Mavzu yaratish 05-Okt-2018 14:19 (20 soat o‘tgach)

Iqitibos

Profil ShX

Spicger

Jins:
Yigit
Staj:
2 oy 12 kun
Xabarlar:
38

Qayerdan: Chinoz

Taqiq:

manda xamma ko'chirvotgan narsalarimi pauza qib qo'yganman tezlik bo'linmagan lekin kam tezlik bervomman negadir

Mavzu yaratish 05-Okt-2018 14:25 (6 daqiqa o‘tgach)

Iqitibos

Profil ShX

AxeL ®

Jins:
Yigit
Staj:
8 oy 24 kun
Xabarlar:
610

Qayerdan: Gronland, Norway

Taqiq:

6320AxeL, boya chatda chaqirganim shu relizingizda siddan chiqing dimoqchidim bizam sidda turib tezlik berelik :))
norm tezlik bervossiz, sidda turganingiz bo'ldi shuni o'zi kifoya

Mavzu yaratish 05-Okt-2018 14:59 (34 daqiqa o‘tgach)

Iqitibos

Profil ShX

Spicger

Jins:
Yigit
Staj:
2 oy 12 kun
Xabarlar:
38

Qayerdan: Chinoz

Taqiq:

6322
6320AxeL, boya chatda chaqirganim shu relizingizda siddan chiqing dimoqchidim bizam sidda turib tezlik berelik :))
norm tezlik bervossiz, sidda turganingiz bo'ldi shuni o'zi kifoya
Endi ko'proq tarqatish ishlavole dimanda yangimanu reytingni joyiga keltirvolishim kere

Mavzu yaratish 05-Okt-2018 15:10 (10 daqiqa o‘tgach)

Iqitibos

Profil ShX

Spicger

Jins:
Yigit
Staj:
2 oy 12 kun
Xabarlar:
38

Qayerdan: Chinoz

Taqiq:

lekin reytingimi zo'r qvosam keyin ko'chirib qochib qolaman diganimas nma narsa tortsamam polni sidda turaman man

Mavzu yaratish 05-Okt-2018 15:10 (43 soniya o‘tgach)

Iqitibos

Profil ShX
Xabarlarni ko‘rsatish:    

Hozirgi vaqt: 11-Dek 21:36

Vaqtlar farqi: UTC + 5



Siz mavzu yaratishingiz mumkin emas
Siz xabarlarga javob qaytarishingiz mumkin emas
Siz o‘z xabarlaringizni tahrirlashingiz mumkin emas
Siz o‘z xabarlaringizni o‘chirishingiz mumkin emas
Siz so‘rovlarda ovoz berishingiz mumkin emas
Siz xabalarga fayllarni biriktirishingiz mumkin emas
Siz fayllarni ko‘chirishingiz mumkin emas