˂
˃
Tarqatmalar statistikasi
Ko‘chirmoqdaman: [ 7 ]
Ko‘chirib bo‘ldim: [ 34 ]
 
     
 
 

rameo1988 ®

Jins:
Yigit
Staj:
1 oy 9 kun
Xabarlar:
50

Qayerdan: Tashkent

Taqiq:

Yashil Fonus | Зеленый Фонарь | Green Lantern
Kengaytirilgan Versiya | расширенная версия | Extended Cut
- -Chiqqan yili: 2011
Davlat: AQSH
Janr: Fantastik, Hayoliy, Jangari, Sarguzasht.
Davomiyligi: 02:03:39
Tarjima №1: Professional (Ko'p ovozli kadr ortidan) (O'zbek tilida)
Tarjima №2: Professional (dublyaj qilingan) (Rus tilida)
Tarjima №3: Professional (dublyaj qilingan) (Eng tilida)
Subtitrlar: Ruscha (to'liq), inglizcha (Full), Inglizcha-Rejissyor: Martin Campbell-Rollarda: Rayan reynolds, Bleyk Lively, Piter Sarsgaard, Mark Luqo Strong, Angela Bassett, Tim Robbins, Jey O. Sanders, Jon Tenney, Temuera Morrison, Taika Waititi.-Tavsif: Koinotda, cheksiz, cheksiz bo'lgani kabi, asrlar mobaynida juda katta kuchi bo'lgan jangchi guruhlari mavjud edi. Tinchlik va adolat himoyachilari, ular "Yashil Fonus korpusi" deb nomlanadi. Ularning har biri ulkan kuchlarga ega bo'lgan uzuk kiyib, intergalaktik qonunini himoya qilishga va'da bergan jangchilarning birodarligi. Ammo Parallaks deb atalgan yangi dushman olamdagi muvozanatni buzish bilan tahdid qilganda, ularning taqdiri va Er taqdiri ishni bajarish bilan yakunlanadi, jamoaning tarixidagi ilk odam - Hal Iordaniya.
Hal jasoratli va iste'dodli tajriba pilotidir, lekin Yashil Fonuslar insoniyatga ishonch va hurmat qilishmaydi, chunki odamlar hech qachon ringning abadiy kuchini sindira olishmagan. Lekin Xol mozaikaning yo'qolgan qismiga o'xshaydi va u hech qanday yulduz jangchisi bo'lmagan insoniylikka va qat'iyatiga ega.-Reyting:
-Videoning sifati: BDRip 720p
Video format: MKV
Video: AVC, (1280x720) 1 758 Kbps, 23,976 fps, 1 758 Kbps
Audio №1: MP3 / 44.1Hz stereo 2.0ch / 192 kbps / O'zbek tilida
Audio №2: AC-3 / 48Hz stereo 5.1ch / 384 Kbps / Rus tilida
Audio №3: AC-3 / 48Hz stereo 5.1ch / 384 kbps / Eng tilida
-

Media Info

D:\HD\Yashil Fonus.2011.BDRip-AVC.mkv
General
Unique ID : 132275544540821059898651673391928025305 (0x638357DCE195A8FF89F93C9F7C19A0D9)
Complete name : D:\HD\Yashil Fonus.2011.BDRip-AVC.mkv
Format : Matroska
Format version : Version 4 / Version 2
File size : 2.35 GiB
Duration : 2h 3mn
Overall bit rate : 2 717 Kbps
Movie name : Green Lantern (2011) - BDRip
Encoded date : UTC 2018-12-20 07:58:37
Writing application : mkvmerge v29.0.0 ('Like It Or Not') 64-bit
Writing library : libebml v1.3.6 + libmatroska v1.4.9
DURATION : 02:01:22.521000000
NUMBER_OF_FRAMES : 278784
NUMBER_OF_BYTES : 174780498
_STATISTICS_WRITING_APP : mkvmerge v29.0.0 ('Like It Or Not') 64-bit
_STATISTICS_WRITING_DATE_UTC : 2018-12-20 07:58:37
_STATISTICS_TAGS : BPS DURATION NUMBER_OF_FRAMES NUMBER_OF_BYTES
Video #1
ID : 1
Format : AVC
Format/Info : Advanced Video Codec
Format profile : High@L4.0
Format settings, CABAC : Yes
Format settings, ReFrames : 11 frames
Codec ID : V_MPEG4/ISO/AVC
Duration : 2h 3mn
Bit rate : 1 758 Kbps
Width : 1 280 pixels
Height : 720 pixels
Display aspect ratio : 2.40:1
Frame rate : 23.976 fps
Color space : YUV
Chroma subsampling : 4:2:0
Bit depth : 8 bits
Scan type : Progressive
Bits/(Pixel*Frame) : 0.144
Stream size : 1.47 GiB (63%)
Title : [Extended Cut]
Writing library : x264 core 130 r2273kMod b3065e6
Encoding settings : cabac=1 / ref=11 / deblock=1:-3:-2 / analyse=0x3:0x133 / me=umh / subme=11 / psy=1 / fade_compensate=0.00 / psy_rd=0.95:0.05 / mixed_ref=1 / me_range=32 / chroma_me=1 / trellis=2 / 8x8dct=1 / cqm=0 / deadzone=21,11 / fast_pskip=0 / chroma_qp_offset=-3 / threads=6 / lookahead_threads=1 / sliced_threads=0 / nr=0 / decimate=0 / interlaced=0 / bluray_compat=0 / constrained_intra=0 / bframes=13 / b_pyramid=2 / b_adapt=2 / b_bias=0 / direct=3 / weightb=1 / open_gop=0 / weightp=2 / keyint=240 / keyint_min=23 / scenecut=40 / intra_refresh=0 / rc_lookahead=60 / rc=2pass / mbtree=0 / bitrate=1758 / ratetol=1.0 / qcomp=0.60 / qpmin=10 / qpmax=51 / qpstep=4 / cplxblur=20.0 / qblur=0.5 / vbv_maxrate=20000 / vbv_bufsize=25000 / nal_hrd=none / ip_ratio=1.40 / pb_ratio=1.30 / aq=3:0.70
Default : Yes
Forced : Yes
Color primaries : BT.709-5, BT.1361, IEC 61966-2-4, SMPTE RP177
Transfer characteristics : BT.709-5, BT.1361
Matrix coefficients : BT.709-5, BT.1361, IEC 61966-2-4 709, SMPTE RP177
Audio #2
ID : 2
Format : MPEG Audio
Format version : Version 1
Format profile : Layer 3
Mode : Joint stereo
Mode extension : MS Stereo
Codec ID : A_MPEG/L3
Codec ID/Hint : MP3
Duration : 2h 1mn
Bit rate mode : Constant
Bit rate : 192 Kbps
Channel(s) : 2 channels
Sampling rate : 44.1 KHz
Compression mode : Lossy
Stream size : 167 MiB (7%)
Title : Uzbek by ZET
Writing library : LAME3.99.5
Language : Uzbek
Default : No
Forced : No
Audio #3
ID : 3
Format : AC-3
Format/Info : Audio Coding 3
Mode extension : CM (complete main)
Format settings, Endianness : Big
Codec ID : A_AC3
Duration : 2h 3mn
Bit rate mode : Constant
Bit rate : 384 Kbps
Channel(s) : 6 channels
Channel positions : Front: L C R, Side: L R, LFE
Sampling rate : 48.0 KHz
Bit depth : 16 bits
Compression mode : Lossy
Stream size : 340 MiB (14%)
Title : Russian
Language : Russian
Default : Yes
Forced : No
Audio #4
ID : 4
Format : AC-3
Format/Info : Audio Coding 3
Mode extension : CM (complete main)
Format settings, Endianness : Big
Codec ID : A_AC3
Duration : 2h 3mn
Bit rate mode : Constant
Bit rate : 384 Kbps
Channel(s) : 6 channels
Channel positions : Front: L C R, Side: L R, LFE
Sampling rate : 48.0 KHz
Bit depth : 16 bits
Compression mode : Lossy
Stream size : 340 MiB (14%)
Title : English
Language : English
Default : No
Forced : No
Text #5
ID : 5
Format : UTF-8
Codec ID : S_TEXT/UTF8
Codec ID/Info : UTF-8 Plain Text
Title : Russian
Language : Russian
Default : No
Forced : No
Text #6
ID : 6
Format : UTF-8
Codec ID : S_TEXT/UTF8
Codec ID/Info : UTF-8 Plain Text
Title : English
Language : English
Default : No
Forced : No


So‘ngi marta tahrirlandi: rameo1988 (2018-12-22 11:04), Jami tahrirlangan 3 marta
Profil ShX

MRLG

Jins:
Yigit
Staj:
1 yil 5 oy
Xabarlar:
542
Taqiq:

rameo1988, Trekerdagi faolligingiz uchun alohida rahmat.
Relizni bezashda ba'zi kichik kamchiliklarga yo'l qo'ygansiz.
1. Reliz shapkasida film rejissyorini ko'rsatib o'tmagansiz.
2. Videoning sifati:BDRip-AVC emas. BDRip 720p to'g'ri bo'ladi.
3. Audio 1: MPEG emas oddiygina MP3 deb yozsangiz ham bo'laveradi.

Mavzu yaratish 20-Dek-2018 15:58 (21 daqiqa o‘tgach)

Iqitibos

Profil ShX

rameo1988 ®

Jins:
Yigit
Staj:
1 oy 9 kun
Xabarlar:
50

Qayerdan: Tashkent

Taqiq:

MRLG, To'g'irlandi Raxmat

Mavzu yaratish 20-Dek-2018 16:09 (11 daqiqa o‘tgach)

Iqitibos

Profil ShX

Dark GHOST

Jins:
Ko‘rsatilmagan
Staj:
1 yil 1 oy
Xabarlar:
51

Qayerdan: Mountain View

Taqiq:

Zo`r film

Mavzu yaratish 21-Dek-2018 18:32 (1 kun 2 soat o‘tgach)

Iqitibos

Profil ShX
Xabarlarni ko‘rsatish:    

Hozirgi vaqt: 23-Yan 02:21

Vaqtlar farqi: UTC + 5



Siz mavzu yaratishingiz mumkin emas
Siz xabarlarga javob qaytarishingiz mumkin emas
Siz o‘z xabarlaringizni tahrirlashingiz mumkin emas
Siz o‘z xabarlaringizni o‘chirishingiz mumkin emas
Siz so‘rovlarda ovoz berishingiz mumkin emas
Siz xabalarga fayllarni biriktirishingiz mumkin emas
Siz fayllarni ko‘chirishingiz mumkin emas