˂
˃
 

MRLG ®

Jins:
Yigit
Staj:
1 yil 3 oy
Xabarlar:
526
Taqiq:

Yashil maskan-- -Chiqqan yili: 1999
Davlat: AQSH
Janr: mistika, drama
Davomiyligi: 03:08:38
Tarjima: Professional (Ko'p ovozli kadr ortidan) Yoshlar
Tarjima 2: Professional (dublyaj qilingan) Rus tilida-Rejissyor: Frenk Derabont-Rollarda: Tom Xenks, Devid Mors, Bonni Xant, Maykl Klark Dunkan, Jeyms Kromuell, Maykl Jeter, Grexem Grin, Dag Xatchinson, Sem Rokvell, Berri Pepper-Tavsif: Film Stiven Kingning "Yashil maskan" asariga asoslangan.
Dahshatli jinoyatlarda ayblangan Jon Kofi "Sovuq tog'" qamoqxonasining o'limga mahkumlar blokiga tushadi. Yangi kelgan kishi aqlbovar qilmas darajada baland bo'yli va qo'rqinchli darajada xotirjam edi, ammo uning bu bahaybatligi bo'lim boshlig'i Pol Edjkombni qiyin ahvolga solmadi.
Bu bahaybat kishi buyuk sehrli kuchga ega ekanligi bilan keyinchalik hammani lol qoldirdi.- -Sifati: HDRip
Format: AVI
Video kodek: Xvid / 656x368 / 23.976fps / 973kbps
Audio kodek: MP3 /48000Hz / stereo / 128kbps, [O'zbek tilida Ko'p ovozli kadr ortidan]
Audio kodek 2: MP3 / 48000Hz / stereo / 128kbps, [Rus tilida To'liq dublyaj]-

Media Info

General
Complete name                  : D:\Кино\Tarjima filmlar\Yashil Maskan - Зеленая миля.1999.HDRip.avi
Format                         : AVI
Format/Info                    : Audio Video Interleave
File size                      : 1.64 GiB
Duration                       : 3 h 8 min
Overall bit rate               : 1 244 kb/s
Writing application            : VirtualDubMod 1.5.10.3 (build 2550/release)
Writing library                : VirtualDubMod build 2550/release
Video
ID                             : 0
Format                         : MPEG-4 Visual
Format profile                 : Advanced Simple@L5
Format settings                : BVOP1 / Custom Matrix
Format settings, BVOP          : 1
Format settings, QPel          : No
Format settings, GMC           : No warppoints
Format settings, Matrix        : Custom
Codec ID                       : XVID
Codec ID/Hint                  : XviD
Duration                       : 3 h 8 min
Bit rate                       : 974 kb/s
Width                          : 656 pixels
Height                         : 368 pixels
Display aspect ratio           : 16:9
Frame rate                     : 23.976 (24000/1001) FPS
Color space                    : YUV
Chroma subsampling             : 4:2:0
Bit depth                      : 8 bits
Scan type                      : Progressive
Compression mode               : Lossy
Bits/(Pixel*Frame)             : 0.168
Stream size                    : 1.28 GiB (78%)
Writing library                : XviD 1.2.1 (UTC 2008-12-04)
Audio #1
ID                             : 1
Format                         : MPEG Audio
Format version                 : Version 1
Format profile                 : Layer 3
Format settings                : Joint stereo / MS Stereo
Codec ID                       : 55
Codec ID/Hint                  : MP3
Duration                       : 3 h 8 min
Bit rate mode                  : Constant
Bit rate                       : 128 kb/s
Channel(s)                     : 2 channels
Sampling rate                  : 48.0 kHz
Frame rate                     : 41.667 FPS (1152 SPF)
Compression mode               : Lossy
Stream size                    : 173 MiB (10%)
Alignment                      : Aligned on interleaves
Interleave, duration           : 42  ms (1.00 video frame)
Interleave, preload duration   : 504  ms
Writing library                : LAME3.100
Encoding settings              : -m j -V 4 -q 2 -lowpass 17 -b 128
Audio #2
ID                             : 2
Format                         : MPEG Audio
Format version                 : Version 1
Format profile                 : Layer 3
Codec ID                       : 55
Codec ID/Hint                  : MP3
Duration                       : 3 h 8 min
Bit rate mode                  : Constant
Bit rate                       : 128 kb/s
Channel(s)                     : 2 channels
Sampling rate                  : 48.0 kHz
Frame rate                     : 41.667 FPS (1152 SPF)
Compression mode               : Lossy
Stream size                    : 173 MiB (10%)
Alignment                      : Aligned on interleaves
Interleave, duration           : 42  ms (1.00 video frame)
Interleave, preload duration   : 504  ms
Writing library                : LAME3.98r
Encoding settings              : -m s -V 4 -q 2 -lowpass 17 -b 128

Miniatyura



So‘ngi marta tahrirlandi: MRLG (2018-05-24 10:23), Jami tahrirlangan 1 marta
Profil ShX

MRLG ®

Jins:
Yigit
Staj:
1 yil 3 oy
Xabarlar:
526
Taqiq:

Ko'rishga arziydigan eng zo'r filmlardan biri.

Mavzu yaratish 20-May-2018 16:11 (3 daqiqa o‘tgach)

Iqitibos

Profil ShX

Soft-Release

Jins:
Yigit
Staj:
8 oy 28 kun
Xabarlar:
737

Qayerdan: Kattakurgan

Taqiq:

MRLG, Zo'r film rostdan ham ko'rishlaringizni maslahat beraman! +5 Klass reliz qilishda charchamang admin aka! Ishlarizga omad!

Mavzu yaratish 20-May-2018 16:18 (6 daqiqa o‘tgach)

Iqitibos

Profil ShX

SobirR

Jins:
Yigit
Staj:
8 oy 22 kun
Xabarlar:
222

Qayerdan: Navoiy. Uchquduq

Taqiq:

MRLG, Kino uchun rahmat. kino yig'latadigan filmlar qatorida

Mavzu yaratish 20-May-2018 23:55 (7 soat o‘tgach)

Iqitibos

Profil ShX

bekastar

Jins:
Yigit
Staj:
6 oy 15 kun
Xabarlar:
26

Qayerdan: Samarqand

Taqiq:

MRLG bu NOLG emasmi?

Mavzu yaratish 27-May-2018 00:09 (6 kun o‘tgach)

Iqitibos

Profil ShX

MRLG ®

Jins:
Yigit
Staj:
1 yil 3 oy
Xabarlar:
526
Taqiq:

4320MRLG bu NOLG emasmi?
Yo'q) NoLG bu yerda => http://uztracker.me/profile-nolg-mode=viewprofile&u=35.html

Mavzu yaratish 27-May-2018 00:31 (22 daqiqa o‘tgach)

Iqitibos

Profil ShX
Xabarlarni ko‘rsatish:    

Hozirgi vaqt: 11-Dek 20:30

Vaqtlar farqi: UTC + 5



Siz mavzu yaratishingiz mumkin emas
Siz xabarlarga javob qaytarishingiz mumkin emas
Siz o‘z xabarlaringizni tahrirlashingiz mumkin emas
Siz o‘z xabarlaringizni o‘chirishingiz mumkin emas
Siz so‘rovlarda ovoz berishingiz mumkin emas
Siz xabalarga fayllarni biriktirishingiz mumkin emas
Siz fayllarni ko‘chirishingiz mumkin emas