˂
˃
Tarqatmalar statistikasi
Ko‘chirmoqdaman: [ 4 ]
Ko‘chirib bo‘ldim: [ 21 ]
 
     
 
 

N.U.R.I.K.B.E.K ®

Jins:
Yigit
Staj:
1 yil 1 oy
Xabarlar:
339

Qayerdan: Jizzax. Paxtakor

Taqiq:

--Yura Davriga Sayohat Uchlik | Парк Юрского периода Трилогия | Jurassic Park Trilogy-- --Chiqqan yili: 1993,1997,2001.
Davlat: AQSH
Janr: Fantastik, Sarguzash, Ujas, Triller.
Davomiyligi: 02:06:57, 02:08:47. 01:32:21.
Tarjima: Professional (dublyaj qilingan)
Tarjima #1: Professional (Yoshlar) O'zbek Tilida
Tarjima #2: Professional (litsenziya) Rus Tilida--Rejissyor: Stiven Stilberg, Djo Djonston.--Videoning sifati: HD 720p
Video format: MKV--Video: MPEG4 Video (H264) 1024x554 23.976fps
Audio: Audio: MP3 48000Hz stereo 192kbps O'zbek Tili
Audio: Audio: AAC 48000Hz stereo Rus Tili--

Yura Davriga Sayohat 1

-- --Yura Davriga Sayohat 1 --Chiqqan yili: 1993
Davlat: AQSH
Janr: Fantastik, Sarguzash, Ujas, Triller.
Davomiyligi: 02:06:57.
Tarjima: Professional (dublyaj qilingan)
Tarjima #1: Professional (Yoshlar) O'zbek Tilida
Tarjima #2: Professional (litsenziya) Rus Tilida--Rejissyor: Stiven Stilberg.--Rollarda: Sem Nil, Lora Dern, Djeff Goldblyum, Richard Attenboro, Djozer Massello, Ariana Richard, Ueyn Nayt, Bob Pek, Martin Ferrero, Samyuel L Djekson.--Tavsif: Keng boy odam va professor Kosta-Rikaning qirg'og'idagi orolga kelish uchun bir necha paleontologik olimlarni ishontirmoqda. Ushbu bog'da qadimiy hayvonlar - dinazavrlarning mavjudligi, uning fikriga ko'ra, yangi diqqatga sazovor dasturning asosiy yo'nalishi bo'lishi kerak.
Ochilishdan bir necha kunlar qolgan va ishchilarning biri «ko'chatlar» ni chapga sotishga harakat qilib, yomg'ir bilan birgalikda xavfsizlik tizimini buzib, tarixiy hayvonlarning o'z xohishlariga muvofiq harakat qilishlarini xohlaydi.--Videoning sifati: HD 720p
Video format: MKV--Video: MPEG4 Video (H264) 1024x554 23.976fps 1 386 Kbps
Audio: Audio: MP3 48000Hz stereo 192kbps O'zbek Tili
Audio: Audio: AAC 48000Hz stereo Rus Tili--

Media Info

General
Format : Matroska
Format version : Version 4 / Version 2
File size : 1.23 GiB
Duration : 2h 6mn
Overall bit rate : 1 386 Kbps
Video
ID : 1
Format : AVC
Format/Info : Advanced Video Codec
Format profile : High@L3.1
Format settings, CABAC : Yes
Format settings, ReFrames : 4 frames
Codec ID : V_MPEG4/ISO/AVC
Duration : 2h 6mn
Nominal bit rate : 1 014 Kbps
Width : 1 024 pixels
Height : 554 pixels
Display aspect ratio : 1.85:1
Frame rate mode : Constant
Frame rate : 23.976 fps
Color space : YUV
Chroma subsampling : 4:2:0
Bit depth : 8 bits
Scan type : Progressive
Bits/(Pixel*Frame) : 0.075
Writing library : x264 core 150
Language : English
Default : Yes
Forced : No
Audio #1
ID : 2
Format : MPEG Audio
Format version : Version 1
Format profile : Layer 3
Mode : Joint stereo
Mode extension : MS Stereo
Codec ID : A_MPEG/L3
Codec ID/Hint : MP3
Duration : 2h 6mn
Bit rate mode : Constant
Bit rate : 192 Kbps
Channel(s) : 2 channels
Sampling rate : 48.0 KHz
Compression mode : Lossy
Delay relative to video : -21ms
Stream size : 174 MiB (14%)
Title : O'zbek Tili
Default : Yes
Forced : No
Audio #2
ID : 3
Format : AAC
Format/Info : Advanced Audio Codec
Format profile : LC
Codec ID : A_AAC
Duration : 2h 6mn
Channel(s) : 2 channels
Channel positions : Front: L R
Sampling rate : 48.0 KHz
Compression mode : Lossy
Delay relative to video : -21ms
Title : Rus Tili
Language : Russian
Default : No
Forced : No
LAVHALAR

Yura Davriga Sayohat 2

Yura Davriga Sayohat 2--Chiqqan yili: 1997
Davlat: AQSH
Janr: Fantastik, Sarguzash, Ujas, Triller.
Davomiyligi: 02:08:47.
Tarjima: Professional (dublyaj qilingan)
Tarjima #1: Professional (Yoshlar) O'zbek Tilida
Tarjima #2: Professional (litsenziya) Rus Tilida--Rejissyor: Stiven Stilberg.--Rollarda: Djeff Goldblyum, Djulianna Mur, Vins Von, Vanessa Li Chester, Pit Postletueyt, Arliss Xovard, Richard Attenboro, Richard Shiff, Peter Stormare, Xarvi Djeyson.--Tavsif: Ushbu filmning voqealari "Jurassic Park" da sodir bo'lgan voqealardan to'rt yil keyin boshlanadi. Yaqin atrofdagi orolda dinozavrlar omon qoldi va yovvoyilikka moslashdi. Biroq, bu erda ularni materikga olib borib, pul topish, oqibatlari qanday bo'lishini tushunmaslik va o'z xalqini orolga yuborishni istagan kishi.
Uning kompaniyasini nazoratdan mahrum qilgan Jon Xammond o'zining o'tmishdagi xatolarini tuzatishga imkoniyati borligiga ishonadi. O'z navbatida, Jan Malcolm (Jeff Goldblum) boshchiligidagi askarlarning qo'nishiga oldin u erga kelish uchun ekspeditsiyaga ega.
Ushbu voqealar natijasida bu ikki ziddiyatli guruh o'lim xavfi ostida birlashishga majbur. Va shunga qaramay, vaqt juda oz chiqadi.--Videoning sifati: HD 720p
Video format: MKV--Video: MPEG4 Video (H264) 1024x554 23.976fps 1 392 Kbps
Audio: Audio: MP3 48000Hz stereo 192kbps O'zbek Tili
Audio: Audio: AAC 48000Hz stereo Rus Tili--

Media Info

General
Format : Matroska
Format version : Version 4 / Version 2
File size : 1.25 GiB
Duration : 2h 8mn
Overall bit rate : 1 392 Kbps
Video
ID : 1
Format : AVC
Format/Info : Advanced Video Codec
Format profile : High@L3.1
Format settings, CABAC : Yes
Format settings, ReFrames : 4 frames
Codec ID : V_MPEG4/ISO/AVC
Duration : 2h 8mn
Nominal bit rate : 1 014 Kbps
Width : 1 024 pixels
Height : 554 pixels
Display aspect ratio : 1.85:1
Frame rate mode : Constant
Frame rate : 23.976 fps
Color space : YUV
Chroma subsampling : 4:2:0
Bit depth : 8 bits
Scan type : Progressive
Bits/(Pixel*Frame) : 0.075
Writing library : x264 core 150
Language : English
Default : Yes
Forced : No
Audio #1
ID : 2
Format : MPEG Audio
Format version : Version 1
Format profile : Layer 3
Mode : Joint stereo
Mode extension : MS Stereo
Codec ID : A_MPEG/L3
Codec ID/Hint : MP3
Duration : 2h 8mn
Bit rate mode : Constant
Bit rate : 192 Kbps
Channel(s) : 2 channels
Sampling rate : 48.0 KHz
Compression mode : Lossy
Delay relative to video : -21ms
Stream size : 177 MiB (14%)
Title : O'zbek Tili
Writing library : LAME3.99.5
Default : Yes
Forced : No
Audio #2
ID : 3
Format : AAC
Format/Info : Advanced Audio Codec
Format profile : LC
Codec ID : A_AAC
Duration : 2h 8mn
Channel(s) : 2 channels
Channel positions : Front: L R
Sampling rate : 48.0 KHz
Compression mode : Lossy
Delay relative to video : -21ms
Title : Rus Tili
Language : Russian
Default : No
Forced : No
LAVHALAR

Yura Davriga Sayohat 3

Yura Davriga Sayohat 3 --Chiqqan yili: 2001
Davlat: AQSH
Janr: Fantastik, Sarguzash, Ujas, Triller.
Davomiyligi: 01:32:21.
Tarjima: Professional (dublyaj qilingan)
Tarjima #1: Professional (Yoshlar) O'zbek Tilida
Tarjima #2: Professional (litsenziya) Rus Tilida--Rejissyor: Djo Djonston.--Rollarda: Sem Nel, Uilyam X Meysi, Tea Leoni, Alessandro Nivola, Trevor Morgan, Maykl Djeter, Djon Del, Bryus Yang, Lora Dern, Teylor Nikols.--Tavsif: Sam Nealning qahramoni, paleontolog Alan Grant, yollanma ishbilarmonning maxsus ishga yollangan samolyotda taniqli Sorn orolining diqqatga sazovor joylariga sayohat qilishni taklif qiladi. Doktor Grant qo'rqinchli, kutilmagan bir falokat yana uni o'tmishdan qattiq yirtqich hayvonlarga aylantirishi mumkinligini tasavvur qila oladimi?
Bundan tashqari, "Jurassic Park" ning dahshatli hodisalari tufayli dinazavrlarning aql-idrokka, kuchliroq va mutanosibroq xavfga aylangan. Yashash uchun yangi, tezkor va dahshatli bir poyga boshlanadi, bundan tashqari, doktor Grantning barcha so'nggi sarguzashtlari bolalar o'yinchoqlaridir!--Videoning sifati: HD 720p
Video format: MKV--Video: MPEG4 Video (H264) 1024x554 23.976fps 1 390 Kbps
Audio: Audio: MP3 48000Hz stereo 192kbps O'zbek Tili
Audio: Audio: AAC 48000Hz stereo Rus Tili--

Media Info

General
Format : Matroska
Format version : Version 4 / Version 2
File size : 918 MiB
Duration : 1h 32mn
Overall bit rate : 1 390 Kbps
Video
ID : 1
Format : AVC
Format/Info : Advanced Video Codec
Format profile : High@L3.1
Format settings, CABAC : Yes
Format settings, ReFrames : 4 frames
Codec ID : V_MPEG4/ISO/AVC
Duration : 1h 32mn
Nominal bit rate : 1 014 Kbps
Width : 1 024 pixels
Height : 554 pixels
Display aspect ratio : 1.85:1
Frame rate mode : Constant
Frame rate : 23.976 fps
Color space : YUV
Chroma subsampling : 4:2:0
Bit depth : 8 bits
Scan type : Progressive
Bits/(Pixel*Frame) : 0.075
Writing library : x264 core 150
Language : English
Default : Yes
Forced : No
Audio #1
ID : 2
Format : MPEG Audio
Format version : Version 1
Format profile : Layer 3
Mode : Joint stereo
Mode extension : MS Stereo
Codec ID : A_MPEG/L3
Codec ID/Hint : MP3
Duration : 1h 32mn
Bit rate mode : Constant
Bit rate : 192 Kbps
Channel(s) : 2 channels
Sampling rate : 48.0 KHz
Compression mode : Lossy
Delay relative to video : -21ms
Stream size : 127 MiB (14%)
Title : O'zbek Tili
Writing library : LAME3.99.5
Default : Yes
Forced : No
Audio #2
ID : 3
Format : AAC
Format/Info : Advanced Audio Codec
Format profile : LC
Codec ID : A_AAC
Duration : 1h 32mn
Channel(s) : 2 channels
Channel positions : Front: L R
Sampling rate : 48.0 KHz
Compression mode : Lossy
Delay relative to video : -21ms
Title : Rus Tili
Language : Russian
Default : No
Forced : No
LAVHALAR


So‘ngi marta tahrirlandi: N.U.R.I.K.B.E.K (2018-10-06 02:56), Jami tahrirlangan 1 marta
Profil ShX

AxeL

Jins:
Yigit
Staj:
8 oy 24 kun
Xabarlar:
610

Qayerdan: Gronland, Norway

Taqiq:

N.U.R.I.K.B.E.K, bu uchlikning aniq nomi Yura bog'i deyiladi

Mavzu yaratish 05-Okt-2018 17:45 (22 daqiqa o‘tgach)

Iqitibos

Profil ShX

N.U.R.I.K.B.E.K ®

Jins:
Yigit
Staj:
1 yil 1 oy
Xabarlar:
339

Qayerdan: Jizzax. Paxtakor

Taqiq:

AxeL, to'g'ri yozilgan

Mavzu yaratish 05-Okt-2018 18:45 (59 daqiqa o‘tgach)

Iqitibos

Profil ShX

AxeL

Jins:
Yigit
Staj:
8 oy 24 kun
Xabarlar:
610

Qayerdan: Gronland, Norway

Taqiq:

N.U.R.I.K.B.E.K, bu filmning boshlangiz uchta qismi boshqa nom, keyingi ikkita qismi boshqa nom bilan nomlangan, boshlang'ich uchta qismi "Yura bog'i dunyosi", keyingi ikkita qismi esa "Yura davri dunyosi" bilan nomlangan...

Mavzu yaratish 05-Okt-2018 20:13 (1 soat 27 daqiqa o‘tgach)

Iqitibos

Profil ShX

N.U.R.I.K.B.E.K ®

Jins:
Yigit
Staj:
1 yil 1 oy
Xabarlar:
339

Qayerdan: Jizzax. Paxtakor

Taqiq:

AxeL, kino boshlanganda Yura davriga sayohat dedi borini yozdim

Mavzu yaratish 05-Okt-2018 21:57 (1 soat 44 daqiqa o‘tgach)

Iqitibos

Profil ShX

AxeL

Jins:
Yigit
Staj:
8 oy 24 kun
Xabarlar:
610

Qayerdan: Gronland, Norway

Taqiq:

6343AxeL, kino boshlanganda Yura davriga sayohat dedi borini yozdim
mayli, keyingi relizlarda omad

Mavzu yaratish 05-Okt-2018 22:20 (22 daqiqa o‘tgach)

Iqitibos

Profil ShX

jammmm

Jins:
Yigit
Staj:
9 oy 20 kun
Xabarlar:
4
Taqiq:

Yura Davriga Sayohat Uchlik ni yuklashda yordam bervoring 82.6 % da to`xtab yotibdi nima qilishim kerak ?

Mavzu yaratish 24-Okt-2018 16:13 (18 kun o‘tgach)

Iqitibos

Profil ShX

N.U.R.I.K.B.E.K ®

Jins:
Yigit
Staj:
1 yil 1 oy
Xabarlar:
339

Qayerdan: Jizzax. Paxtakor

Taqiq:

jammmm, razdachada turibdi

Mavzu yaratish 24-Okt-2018 16:28 (15 daqiqa o‘tgach)

Iqitibos

Profil ShX

N.U.R.I.K.B.E.K ®

Jins:
Yigit
Staj:
1 yil 1 oy
Xabarlar:
339

Qayerdan: Jizzax. Paxtakor

Taqiq:

jammmm, teredo o'rnatilganmi

Mavzu yaratish 24-Okt-2018 16:29 (1 daqiqa o‘tgach)

Iqitibos

Profil ShX
Xabarlarni ko‘rsatish:    

Hozirgi vaqt: 11-Dek 20:15

Vaqtlar farqi: UTC + 5



Siz mavzu yaratishingiz mumkin emas
Siz xabarlarga javob qaytarishingiz mumkin emas
Siz o‘z xabarlaringizni tahrirlashingiz mumkin emas
Siz o‘z xabarlaringizni o‘chirishingiz mumkin emas
Siz so‘rovlarda ovoz berishingiz mumkin emas
Siz xabalarga fayllarni biriktirishingiz mumkin emas
Siz fayllarni ko‘chirishingiz mumkin emas