˂
˃
Tarqatmalar statistikasi
Ko‘chirib bo‘ldim: [ 3 ]
 
     
 
 

MRLG ®

Jins:
Yigit
Staj:
1 yil 2 oy
Xabarlar:
522
Taqiq:

Ziqna / Жмот / Radin! -««Pulni sevgiga almashtiraman...»»- -
Chiqqan yili: 2016
Davlat: Fransiya
Janr: Komediya
Davomiyligi: 01:30:11
Tarjima: Ko'p ovozli kadr ortidan (MY5) va Rus tilida [iTunes]- Rejissiyor: Fred Kavaye / Fred Cavayé- Rollarda:
-Deni Bun, Lorans Arne, Noemi Shmidt, Patrik Ridremon, Kristof Kanar, Kristof Favr, Karina Marimon, Stefan Voytovich, Ann-Sofi Jirar, Nikolas Lumbreras, Monika Moykler- Tavsif:
Fransua Goty'e - virtuoz skripkachi. Ammo iste'dod uchun odatdagidek pul to'lashingiz kerak. Musiqachi jiddiy kamchilikka ega: u juda hasis. Saqlash mani'si uni obsessiv holga keltiradi va har qanday to'lov vahimaga tushiradi. Ammo bir kun uning hayoti keskin o'zgaradi.-Dunyodagi primierasi: 2 сентября 2016
КиноПоиск: 6.124 (5738)
IMDb: 5.80 (2299)- Sifat: BDRip
Format: AVI
Video: XviD, 720x304 (2.35:1), 1860 kbps, 24 fps, 0,354 bpp
Audio №1: MP3 / 2.0 / 48 kHz / 128 kbps / | MY5 | O'zbek tilida
Audio №2: AC3 / 5.1 / 48 kHz / 384 kbps / | iTunes | Rus tilida-

Media Info

General
Complete name                            : Ziqna (2017 - BDRip) MY5.Dub.avi
Format                                   : AVI
Format/Info                              : Audio Video Interleave
File size                                : 1.50 GiB
Duration                                 : 1 h 30 min
Overall bit rate                         : 2 387 kb/s
Writing application                      : VirtualDubMod 1.5.10.3 (build 2550/release)
Writing library                          : VirtualDubMod build 2550/release
Video
ID                                       : 0
Format                                   : MPEG-4 Visual
Format profile                           : Advanced Simple@L5
Format settings, BVOP                    : 1
Format settings, QPel                    : No
Format settings, GMC                     : No warppoints
Format settings, Matrix                  : Custom
Codec ID                                 : XVID
Codec ID/Hint                            : XviD
Duration                                 : 1 h 30 min
Bit rate                                 : 1 861 kb/s
Width                                    : 720 pixels
Height                                   : 304 pixels
Display aspect ratio                     : 2.35:1
Frame rate                               : 24.000 FPS
Color space                              : YUV
Chroma subsampling                       : 4:2:0
Bit depth                                : 8 bits
Scan type                                : Progressive
Compression mode                         : Lossy
Bits/(Pixel*Frame)                       : 0.354
Stream size                              : 1.17 GiB (78%)
Writing library                          : XviD 73
Audio #1
ID                                       : 1
Format                                   : MPEG Audio
Format version                           : Version 1
Format profile                           : Layer 3
Codec ID                                 : 55
Codec ID/Hint                            : MP3
Duration                                 : 1 h 30 min
Bit rate mode                            : Constant
Bit rate                                 : 128 kb/s
Channel(s)                               : 2 channels
Sampling rate                            : 48.0 kHz
Compression mode                         : Lossy
Stream size                              : 82.6 MiB (5%)
Alignment                                : Aligned on interleaves
Interleave, duration                     : 42  ms (1.00 video frame)
Interleave, preload duration             : 504  ms
Writing library                          : LAME3.99r
Encoding settings                        : -m s -V 4 -q 0 -lowpass 17 -b 128
Audio #2
ID                                       : 2
Format                                   : AC-3
Format/Info                              : Audio Coding 3
Mode extension                           : CM (complete main)
Format settings, Endianness              : Big
Codec ID                                 : 2000
Duration                                 : 1 h 30 min
Bit rate mode                            : Constant
Bit rate                                 : 384 kb/s
Channel(s)                               : 6 channels
Channel positions                        : Front: L C R, Side: L R, LFE
Sampling rate                            : 48.0 kHz
Frame rate                               : 31.250 FPS (1536 spf)
Compression mode                         : Lossy
Stream size                              : 248 MiB (16%)
Alignment                                : Split accross interleaves
Interleave, duration                     : 42  ms (1.00 video frame)
Interleave, preload duration             : 500  ms

Miniatyura

SKRINSHOTLAR
- © Template by MRLG
Profil ShX

Vampire_1987

Jins:
Ko‘rsatilmagan
Staj:
1 yil 2 oy
Xabarlar:
115
Taqiq:

MRLG, Raxmat Filim Uchun Filim Juda Yaxshi Ishlangan ) Uztracker.me Tarjimonlariga Iltimos Ovoz Yo'lakchani Joylayabganingiz Huddi MRLG Yuklaganidek Qilib Joylanglar Uzb dagi Ovoz Yo'lakchadi 1-Tursin Chunki Kopchilk Qanday Ovozni Almashtirishni Bilmaydi ) Hammagizga Omad )

Mavzu yaratish 04-Dek-2017 14:23 (41 daqiqa o‘tgach)

Iqitibos

Profil ShX
Xabarlarni ko‘rsatish:    

Hozirgi vaqt: 15-Noy 11:56

Vaqtlar farqi: UTC + 5



Siz mavzu yaratishingiz mumkin emas
Siz xabarlarga javob qaytarishingiz mumkin emas
Siz o‘z xabarlaringizni tahrirlashingiz mumkin emas
Siz o‘z xabarlaringizni o‘chirishingiz mumkin emas
Siz so‘rovlarda ovoz berishingiz mumkin emas
Siz xabalarga fayllarni biriktirishingiz mumkin emas
Siz fayllarni ko‘chirishingiz mumkin emas