˂
˃
Tarqatmalar statistikasi
Ko‘chirmoqdaman: [ 2 ]
Ko‘chirib bo‘ldim: [ 47 ]
 
     
 
 

PrankSter ®

Jins:
Yigit
Staj:
7 oy 12 kun
Xabarlar:
50
Taqiq:

Mahsus topshiriq 2 | Спецотрят 2 | Force 2- Chiqqan yili: 2016
Davlat: Hindiston
Janr: Jangari, Dedektiv, Kriminal, Triller, Sarguzasht
Davomiyligi: 02:03:32
Tarjima: Professional (Ko'p ovozli kadr ortidan) Favvora Studio-Rejissyor: Abinay Deo / Абинай Део-Rollarda: Jon Abraxam, Adil Xusseyin, Born Frayberg, Luis Mc, Narendra Jxa, Sonakshi Sinxa, Taxir Raj Bxasin, Freddi Daruvala, Cogbaatar Botsogir-Tavsif: Яшвардхан искушенный опытом старший офицер отдела по борьбе с наркотиками, тот кто действует не по учебнику, но всегда гарантирует торжество справедливости. Он считает, что единственный способ искоренить преступность — это пули, а не наручники. В центре событий его самой опасной и значительной операции по борьбе с наркотическими картелями Индии, Яшвардхан встречается с безжалостным врагом, который не остановится пока не отомстит за ущерб, нанесенный его бизнесу — контрабанде наркотиков. Он также встречает свободную духом Майю, чья любовь вынуждает его сделать выбор между жизнью, которую он ведет, и жизнью, которая могла бы быть с ней. Решение Яшвардхана позволит счастью и стабильности изменить его жизнь навсегда.-Videoning sifati: HDRip-AVC (REKLAMA)
Video format: MP4
Video: AVC, 963 Kbps, 1280×720 , 29,970 fps
Audio: AAC, 128 Kbps, 44.1Khz, 2.0 UZB

Media Info

*** Общее
Полное имя : D/0/Download/mahsus bolim 2.mp4
Формат : MPEG-4
Профиль формата : Base Media
Идентификатор кодека : isom (isom/iso2/avc1/mp41)
Размер файла : 970 Мбайт
Продолжительность : 2 ч. 3 м.
Режим общего битрейта : Переменный
Общий поток : 1098 Кбит/сек
Программа кодирования : Lavf57.83.100
*** Видео
Идентификатор : 1
Формат : AVC
Формат/Информация : Advanced Video Codec
Профиль формата : High@L3.1
Настройки формата : CABAC / 4 Ref Frames
Параметр CABAC формата : Да
Параметр RefFrames формата : 4 кадра
Идентификатор кодека : avc1
Идентификатор кодека/Информация : Advanced Video Coding
Продолжительность : 2 ч. 3 м.
Битрейт : 963 Кбит/сек
Ширина : 1280 пикселей
Высота : 720 пикселей
Соотношение сторон : 16:9
Режим частоты кадров : Постоянный
Частота кадров : 29,970 (30000/1001) кадров/сек
Цветовое пространство : YUV
Субдискретизация насыщенности : 4:2:0
Битовая глубина : 8 бит
Тип развёртки : Прогрессивная
Бит/(Пиксели*Кадры) : 0.035
Размер потока : 851 Мбайт (88%)
Библиотека кодирования : x264 core 148 r2795 aaa9aa8
Настройки программы : cabac=1 / ref=2 / deblock=1:0:0 / analyse=0x3:0x113 / me=hex / subme=6 / psy=1 / psy_rd=1.00:0.00 / mixed_ref=1 / me_range=16 / chroma_me=1 / trellis=1 / 8x8dct=1 / cqm=0 / deadzone=21,11 / fast_pskip=1 / chroma_qp_offset=-2 / threads=6 / lookahead_threads=1 / sliced_threads=0 / nr=0 / decimate=1 / interlaced=0 / bluray_compat=0 / constrained_intra=0 / bframes=3 / b_pyramid=2 / b_adapt=1 / b_bias=0 / direct=1 / weightb=1 / open_gop=0 / weightp=1 / keyint=250 / keyint_min=25 / scenecut=40 / intra_refresh=0 / rc_lookahead=30 / rc=crf / mbtree=1 / crf=24.0 / qcomp=0.60 / qpmin=0 / qpmax=69 / qpstep=4 / ip_ratio=1.40 / aq=1:1.00
Codec configuration box : avcC
*** Аудио
Идентификатор : 2
Формат : AAC LC
Формат/Информация : Advanced Audio Codec Low Complexity
Идентификатор кодека : mp4a-40-2
Продолжительность : 2 ч. 3 м.
Вид битрейта : Переменный
Битрейт : 126 Кбит/сек
Максимальный битрейт : 128 Кбит/сек
Каналы : 2 канала
Channel layout : L R
Частота : 44,1 КГц
Частота кадров : 43,066 кадра/сек (1024 SPF)
Метод сжатия : С потерями
Размер потока : 112 Мбайт (12%)
Default : Да
AlternateGroup/String : 1

Lavhalar

.torrent yuklash

Yuqori tezlikda va bepul ko‘chirish!

Qanday yuklab olinadi? · Torrent nima o‘zi? · Reyting va cheklovlar

Profil ShX

XVII

Jins:
Yigit
Staj:
1 yil 1 oy
Xabarlar:
136

Qayerdan: Surkhandarya

Taqiq:

Ajoyıb fılm

Mavzu yaratish 09-Yan-2019 17:35 (1 kun o‘tgach)

Iqitibos

Profil ShX

Topik Hind kinofilmlari forumidan Vaqtincha tarqatmalar ga ko‘chirildi
MRLG

Mavzu yaratish 10-Yan-2019 09:31 (15 soat o‘tgach)

Xabarlarni ko‘rsatish:    

Hozirgi vaqt: 19-May 15:20

Vaqtlar farqi: UTC + 5



Siz mavzu yaratishingiz mumkin emas
Siz xabarlarga javob qaytarishingiz mumkin emas
Siz o‘z xabarlaringizni tahrirlashingiz mumkin emas
Siz o‘z xabarlaringizni o‘chirishingiz mumkin emas
Siz so‘rovlarda ovoz berishingiz mumkin emas
Siz xabalarga fayllarni biriktirishingiz mumkin emas
Siz fayllarni ko‘chirishingiz mumkin emas