˂
˃
 

AxeL ®

Jins:
Yigit
Staj:
1 yil 2 oy
Xabarlar:
741

Qayerdan: Gronland, Norway

Taqiq:

-Jodu Saltanati: Grindelwaldning jinoyati / Фантастические твари: Преступления Грин-де-Вальда / Fantastic Beasts: The Crimes of Grindelwald- - Chiqqan yili: 2018
Davlat: AQSh, Buyuk Britaniya
Janr: hayoliy, sarguzasht, oilaviy
Davomiyligi: 02:13:40
Tarjima: Professional (ko'p ovozli, Yoshlar kanali) o'zbek tilida
Subtitle: Biriktirilgan (Xitoycha)- Rejissyor: Devid Yates
Rollarda: Johnny Depp, Kevin Guthrie, Carmen Edzhogo, Wolf Roth, Eddie Redmain, Zoe Kravitz, Callum Turner, Derek Riddell, Cornell John, Ezra Miller- Buyuk zulmat afsungari Gellert Grin-de-Vald Shtatda qo'lga olinganidan so'ng, qamoqda qo'l qovushtirib o'tirgani yo'q va ajoyib qochishni tashkillashtirdi. Endi u barcha afsungarlarni butun sayyoradagi barcha oddiy mavjudodlardan ustun qo'yishdek maqsadiga yetishi uchun hechnarsa halal bermaydi. Grin-de-Valdning rejalarini yo'q qilish uchun Albus Dambldor o'zining yordamini ayamaydigan va havf hatardan yiroq bo'lgan sobiq talabasi Nyut Salamanderga murojat qiladi.-
-
Videoning sifati: WEBRip
Video format: MKV
Video: Xvid 720x304 23.976fps 1 932 Kbps
Audio: AAC 48000Hz stereo 2ch 164 Kbps O'zbek tilida
-

Media Info

General
Unique ID : 221574182535643431328533268286665747812 (0xA6B1A2A356B9E67B53F880E86F316D64)
Complete name : D:\Films\Tarjima\HD Video\Jodu.Saltanati.Grindevaldning.Jinoyati.WEBRip.2018.AxeL.mkv
Format : Matroska
Format version : Version 4 / Version 2
File size : 1.96 GiB
Duration : 2h 13mn
Overall bit rate : 2 098 Kbps
Encoded date : UTC 2019-01-08 10:41:55
Writing application : mkvmerge v22.0.0 ('At The End Of The World') 64-bit
Writing library : libebml v1.3.5 + libmatroska v1.4.8
Video
ID : 1
Format : MPEG-4 Visual
Format profile : Advanced Simple@L5
Format settings, BVOP : 1
Format settings, QPel : No
Format settings, GMC : No warppoints
Format settings, Matrix : Custom
Codec ID : V_MS/VFW/FOURCC / XVID
Codec ID/Hint : XviD
Duration : 2h 13mn
Bit rate : 1 932 Kbps
Width : 720 pixels
Height : 304 pixels
Display aspect ratio : 2.35:1
Frame rate mode : Constant
Frame rate : 23.976 (23976/1000) fps
Color space : YUV
Chroma subsampling : 4:2:0
Bit depth : 8 bits
Scan type : Progressive
Compression mode : Lossy
Bits/(Pixel*Frame) : 0.368
Stream size : 1.80 GiB (92%)
Writing library : XviD 73
Default : Yes
Forced : No
Audio
ID : 2
Format : AAC
Format/Info : Advanced Audio Codec
Format profile : LC
Codec ID : A_AAC
Duration : 2h 13mn
Bit rate : 164 Kbps
Channel(s) : 2 channels
Channel positions : Front: L R
Sampling rate : 48.0 KHz
Frame rate : 46.875 fps (1024 spf)
Compression mode : Lossy
Stream size : 157 MiB (8%)
Default : Yes
Forced : No
-
.torrent yuklash

Yuqori tezlikda va bepul ko‘chirish!

Qanday yuklab olinadi? · Torrent nima o‘zi? · Reyting va cheklovlar



So‘ngi marta tahrirlandi: AxeL (2019-01-08 20:06), Jami tahrirlangan 1 marta
Profil ShX

N.U.R.I.K.B.E.K

Jins:
Yigit
Staj:
1 yil 6 oy
Xabarlar:
466

Qayerdan: Jizzax. Paxtakor

Taqiq:

Reklama bormi azino777

Mavzu yaratish 08-Yan-2019 16:28 (23 daqiqa o‘tgach)

Iqitibos

Profil ShX

AxeL ®

Jins:
Yigit
Staj:
1 yil 2 oy
Xabarlar:
741

Qayerdan: Gronland, Norway

Taqiq:

N.U.R.I.K.B.E.K, yo'q faqat koreys subtitlesi bor

Mavzu yaratish 08-Yan-2019 16:47 (19 daqiqa o‘tgach)

Iqitibos

Profil ShX

N.U.R.I.K.B.E.K

Jins:
Yigit
Staj:
1 yil 6 oy
Xabarlar:
466

Qayerdan: Jizzax. Paxtakor

Taqiq:

AxeL, subtitrni xam kiritib quyin

Mavzu yaratish 08-Yan-2019 19:51 (3 soat o‘tgach)

Iqitibos

Profil ShX

Spicger

Jins:
Yigit
Staj:
7 oy 19 kun
Xabarlar:
59

Qayerdan: Chinoz

Taqiq:

Reliz oformleniyasiga gap yo'q rahmat kottakon !!!

Mavzu yaratish 09-Yan-2019 06:14 (10 soat o‘tgach)

Iqitibos

Profil ShX

AxeL ®

Jins:
Yigit
Staj:
1 yil 2 oy
Xabarlar:
741

Qayerdan: Gronland, Norway

Taqiq:

Spicger, arzimaydi, hammasi sizlar uchun...

Mavzu yaratish 09-Yan-2019 06:41 (27 daqiqa o‘tgach)

Iqitibos

Profil ShX

MRLG

Jins:
Yigit
Staj:
1 yil 9 oy
Xabarlar:
595
Taqiq:

Tavsif o'zbek tiliga o'zgartirildi.

Mavzu yaratish 10-Yan-2019 11:48 (1 kun 5 soat o‘tgach)

Iqitibos

Profil ShX

AxeL ®

Jins:
Yigit
Staj:
1 yil 2 oy
Xabarlar:
741

Qayerdan: Gronland, Norway

Taqiq:

MRLG, rahmat

Mavzu yaratish 10-Yan-2019 12:05 (16 daqiqa o‘tgach)

Iqitibos

Profil ShX

djaxa55555

Jins:
Yigit
Staj:
4 oy 6 kun
Xabarlar:
4

Qayerdan: Тошкент

Taqiq:

Рахмат!

Mavzu yaratish 13-Yan-2019 18:45 (3 kun o‘tgach)

Iqitibos

Profil ShX

uz_best

Jins:
Ko‘rsatilmagan
Staj:
9 oy 10 kun
Xabarlar:
1
Taqiq:

Bu videoni qo'ysangiz bo'lmaydimi

Mavzu yaratish 13-Yan-2019 18:52 (7 daqiqa o‘tgach)

Iqitibos

Profil ShX

mukhabbat

Jins:
Ko‘rsatilmagan
Staj:
4 oy 17 kun
Xabarlar:
2
Taqiq:

nega xalixam ko'chira olmayabman

Mavzu yaratish 23-Yan-2019 23:48 (10 kun o‘tgach)

Iqitibos

Profil ShX

MRLG

Jins:
Yigit
Staj:
1 yil 9 oy
Xabarlar:
595
Taqiq:

mukhabbat, Sidlarga ulana olmayapsiz. Buni sababi balki sizda teredo xizmati yoqilmagandir. O'rnatish bo'yicha yo'riqnoma: http://uztracker.me/viewtopic.php?t=16

Mavzu yaratish 24-Yan-2019 00:03 (15 daqiqa o‘tgach)

Iqitibos

Profil ShX
Xabarlarni ko‘rsatish:    

Hozirgi vaqt: 19-May 15:58

Vaqtlar farqi: UTC + 5



Siz mavzu yaratishingiz mumkin emas
Siz xabarlarga javob qaytarishingiz mumkin emas
Siz o‘z xabarlaringizni tahrirlashingiz mumkin emas
Siz o‘z xabarlaringizni o‘chirishingiz mumkin emas
Siz so‘rovlarda ovoz berishingiz mumkin emas
Siz xabalarga fayllarni biriktirishingiz mumkin emas
Siz fayllarni ko‘chirishingiz mumkin emas