˂
˃
Tarqatmalar statistikasi
Yoʻq
 
     
 
 

AxeL ®

Jins:
Yigit
Staj:
1 yil 4 oy
Xabarlar:
743

Qayerdan: Gronland, Norway

Taqiq:

Handalak - "Kuch birlikda" deb nomlangan konsert dasturi 2018-yil -Chiqqan yili: 2018
Davlat: O`zbekison
Janri: Komediya
Davomiyligi: 02:33:08
Tarjima: Shart emas
-Rejissiyor: "Handalak" guruhi
Rollarda
Ortiq Sultonov, Zokir Ochildiyev, Abror Shovvoz, G'ulom shov-shuv va boshqalar...-Tavsif:
Handalak guruhining 2018 yil 27, 28 fevral kunlari poytaxtimizning "Istiqlol" San'at saroyida bo'lib o'tgan "Kuch birlikda" deb nomlangan konsert dasturi bo'lib o'tdi. Siz bu konsert dasturini ko'rib kayfiyatingiz ko'tariladi degan umiddaman. Sizlarga bu konsertni ko'rishni tavsiya qilaman.-Qo'shimcha ma'lumotlar

Media Info

General
Complete name : C:\Users\Админ\Desktop\Handalak – Kuch Birlikda.mp4
Format : MPEG-4
Format profile : Base Media
Codec ID : isom
File size : 953 MiB
Duration : 2h 33mn
Overall bit rate : 870 Kbps
Writing application : Lavf54.6.101
Video
ID : 1
Format : AVC
Format/Info : Advanced Video Codec
Format profile : Baseline@L3.0
Format settings, CABAC : No
Format settings, ReFrames : 1 frame
Codec ID : avc1
Codec ID/Info : Advanced Video Coding
Duration : 2h 33mn
Bit rate : 768 Kbps
Width : 720 pixels
Height : 576 pixels
Display aspect ratio : 16:9
Frame rate mode : Constant
Frame rate : 25.000 fps
Standard : PAL
Color space : YUV
Chroma subsampling : 4:2:0
Bit depth : 8 bits
Scan type : Progressive
Bits/(Pixel*Frame) : 0.074
Stream size : 842 MiB (88%)
Writing library : x264 core 120
Encoding settings : cabac=0 / ref=1 / deblock=1:0:0 / analyse=0x1:0x111 / me=hex / subme=2 / psy=1 / psy_rd=1.00:0.00 / mixed_ref=0 / me_range=16 / chroma_me=1 / trellis=0 / 8x8dct=0 / cqm=0 / deadzone=21,11 / fast_pskip=1 / chroma_qp_offset=0 / threads=6 / sliced_threads=0 / nr=0 / decimate=1 / interlaced=0 / bluray_compat=0 / constrained_intra=0 / bframes=0 / weightp=0 / keyint=250 / keyint_min=25 / scenecut=40 / intra_refresh=0 / rc_lookahead=10 / rc=abr / mbtree=1 / bitrate=768 / ratetol=1.0 / qcomp=0.60 / qpmin=0 / qpmax=69 / qpstep=4 / ip_ratio=1.40 / aq=1:1.00
Audio
ID : 2
Format : AAC
Format/Info : Advanced Audio Codec
Format profile : LC
Codec ID : 40
Duration : 2h 33mn
Bit rate mode : Constant
Bit rate : 96.0 Kbps
Channel(s) : 2 channels
Channel positions : Front: L R
Sampling rate : 44.1 KHz
Compression mode : Lossy
Stream size : 105 MiB (11%)
Language : English
-

Skrinshotlar

-
.torrent yuklash

Yuqori tezlikda va bepul ko‘chirish!

Qanday yuklab olinadi? · Torrent nima o‘zi? · Reyting va cheklovlar



So‘ngi marta tahrirlandi: AxeL (2018-07-16 00:29), Jami tahrirlangan 1 marta
Profil ShX

AxeL ®

Jins:
Yigit
Staj:
1 yil 4 oy
Xabarlar:
743

Qayerdan: Gronland, Norway

Taqiq:

Qo'shimcha ma'lumotlarni qo'shishda yordam bervoringlar.

Mavzu yaratish 16-Iyul-2018 00:26 (51 soniya o‘tgach)

Iqitibos

Profil ShX

iJalol_Production

Jins:
Yigit
Staj:
1 yil 3 oy
Xabarlar:
73
Taqiq:

5071Qo'shimcha ma'lumotlarni qo'shishda yordam bervoringlar.
Media Infoni kirgizibsz bo`ldi. qo`shimcha ma`lumot shart emas.

Mavzu yaratish 16-Iyul-2018 07:56 (7 soat o‘tgach)

Iqitibos

Profil ShX

Topik Ko'ngil ochar videolar forumidan Vaqtincha tarqatmalar ga ko‘chirildi
MRLG

Mavzu yaratish 16-Iyul-2018 08:04 (8 daqiqa o‘tgach)

Rico_Bek

Jins:
Yigit
Staj:
1 yil 9 oy
Xabarlar:
136

Qayerdan: Andijon

Taqiq:

AxeL, Raxmat.
ip va port - 55555:10.7.80.221

Mavzu yaratish 17-Iyul-2018 17:29 (1 kun 9 soat o‘tgach)

Iqitibos

Profil ShX

Rico_Bek

Jins:
Yigit
Staj:
1 yil 9 oy
Xabarlar:
136

Qayerdan: Andijon

Taqiq:

ip va port - 55555:10.7.219.163

Mavzu yaratish 18-Iyul-2018 07:59 (14 soat o‘tgach)

Iqitibos

Profil ShX
Xabarlarni ko‘rsatish:    

Hozirgi vaqt: 23-Iyul 03:46

Vaqtlar farqi: UTC + 5



Siz mavzu yaratishingiz mumkin emas
Siz xabarlarga javob qaytarishingiz mumkin emas
Siz o‘z xabarlaringizni tahrirlashingiz mumkin emas
Siz o‘z xabarlaringizni o‘chirishingiz mumkin emas
Siz so‘rovlarda ovoz berishingiz mumkin emas
Siz xabalarga fayllarni biriktirishingiz mumkin emas
Siz fayllarni ko‘chirishingiz mumkin emas