˂
˃
Tarqatmalar statistikasi
Ko‘chiraman: [ 1 ]
 
     
 
 

AxeL ®

Jins:
Yigit
Staj:
1 yil 4 oy
Xabarlar:
743

Qayerdan: Gronland, Norway

Taqiq:

Oppog'oy va yetti gnom / Белоснежка и семь гномов / Snow White and the Seven Dwarfs- Chiqqan yili: 1937
Davlat: AQSh
Janr: multfilm, musiqa, fentezi, melodrama, oilaviy
Davomiyligi: 01:23:11
Tarjima: Professional (Ko'p ovozli kadr ortidan) O'zbek tilida-Rejissyor: Uilyam Kortell, Devid Xend, Uilfred Djekson-Ssenariy: Yakob Grimm, Vilgelm Grimm, Ted Sirs
Prodyuser: Uolt Disney
Kompozitor:Frenk Cherchil, Li Xarlayn, Pol J. Smit
Rassom: Ken Anderson, Tom Kordik, Xyu Xennesi-Rollarni ovozlashtirganlar: Roy Etvell, Styuart Byukenen, Adriana Kaselotti, Eddi Kollins, Billi Gilbert, Otis Herlan...-Tavsif: Yovuz qirolicha bor edi, u o'z oynasidan dunyodagi eng go'zal ayol kim deb so'raganida, oyna oppog'oyni ko'rsatdi. Qirolicha endilikda oppog'oyni topib yo'q qilishni buyuradi, oppog'oyning sarguzashtlari yettita gnomning uyiga olib keldi...- -Hajmi kichkinaligiyam bor! Taklif bildirilsa u ham joylashtiriladi...-AQShda ishlab topilgan: $184 925 486
Muhlislari: AQSh 109 mln, Buyuk Britaniya 28 mln, Fransiya 18.3 mln, ...
Premyera (Dunyo bo'ylab): 21 dekabr 1937 yil, ...
DVDga reliz: 26 fevral 2003 yil, «DVD Magiya», ...-Videoning sifati: BDRip 1080p
Video format: MKV
Video: MPEG4 Video (H264) 1424x1072 23.976fps 6240 kbps
Audio #1: Dolby AC3 48000Hz 6ch 640 kbps Russian
Audio #2: Dolby AC3 48000Hz 6ch 640 kbps English
Audio #3: Dolby AAC 48000Hz 2ch 161 kbps O'zbek tilida

Media Info

General
Unique ID : 205646563678110079237418387757943094515 (0x9AB616660F2C4EAB6BC532750385FCF3)
Complete name : D:\Films\Multfilms\SnowWhite.and.Seven.Dwarfs.1937.Uzb.Rus.Eng.mkv
Format : Matroska
Format version : Version 4 / Version 2
File size : 4.47 GiB
Duration : 1 h 23 min
Overall bit rate : 7 690 kb/s
Encoded date : UTC 2018-07-20 15:33:33
Writing application : mkvmerge v22.0.0 ('At The End Of The World') 64-bit
Writing library : libebml v1.3.5 + libmatroska v1.4.8
Video
ID : 1
Format : AVC
Format/Info : Advanced Video Codec
Format profile : High@L4.1
Format settings, CABAC : Yes
Format settings, ReFrames : 5 frames
Codec ID : V_MPEG4/ISO/AVC
Duration : 1 h 23 min
Bit rate : 6 240 kb/s
Width : 1 424 pixels
Height : 1 072 pixels
Display aspect ratio : 4:3
Frame rate mode : Constant
Frame rate : 23.976 (24000/1001) FPS
Color space : YUV
Chroma subsampling : 4:2:0
Bit depth : 8 bits
Scan type : Progressive
Bits/(Pixel*Frame) : 0.170
Stream size : 3.63 GiB (81%)
Writing library : x264 core 116 r2074 2641b9e
Encoding settings : cabac=1 / ref=5 / deblock=1:1:1 / analyse=0x3:0x113 / me=umh / subme=9 / psy=1 / psy_rd=0.40:0.00 / mixed_ref=1 / me_range=32 / chroma_me=1 / trellis=1 / 8x8dct=1 / cqm=0 / deadzone=21,11 / fast_pskip=0 / chroma_qp_offset=-2 / threads=6 / sliced_threads=0 / nr=0 / decimate=1 / interlaced=0 / bluray_compat=0 / constrained_intra=0 / bframes=5 / b_pyramid=2 / b_adapt=2 / b_bias=0 / direct=3 / weightb=1 / open_gop=0 / weightp=2 / keyint=250 / keyint_min=23 / scenecut=40 / intra_refresh=0 / rc_lookahead=50 / rc=2pass / mbtree=1 / bitrate=6240 / ratetol=1.0 / qcomp=0.60 / qpmin=0 / qpmax=69 / qpstep=4 / cplxblur=20.0 / qblur=0.5 / ip_ratio=1.40 / aq=1:0.60
Language : English
Default : Yes
Forced : No
Audio #1
ID : 2
Format : AC-3
Format/Info : Audio Coding 3
Mode extension : CM (complete main)
Format settings, Endianness : Big
Codec ID : A_AC3
Duration : 1 h 23 min
Bit rate mode : Constant
Bit rate : 640 kb/s
Channel(s) : 6 channels
Channel positions : Front: L C R, Side: L R, LFE
Sampling rate : 48.0 kHz
Frame rate : 31.250 FPS (1536 spf)
Compression mode : Lossy
Stream size : 381 MiB (8%)
Language : Russian
Default : Yes
Forced : No
Audio #2
ID : 3
Format : AC-3
Format/Info : Audio Coding 3
Mode extension : CM (complete main)
Format settings, Endianness : Big
Codec ID : A_AC3
Duration : 1 h 23 min
Bit rate mode : Constant
Bit rate : 640 kb/s
Channel(s) : 6 channels
Channel positions : Front: L C R, Side: L R, LFE
Sampling rate : 48.0 kHz
Frame rate : 31.250 FPS (1536 spf)
Compression mode : Lossy
Stream size : 381 MiB (8%)
Language : English
Default : No
Forced : No
Audio #3
ID : 7
Format : AAC
Format/Info : Advanced Audio Codec
Format profile : LC
Codec ID : A_AAC
Duration : 1 h 23 min
Bit rate : 161 kb/s
Channel(s) : 2 channels
Channel positions : Front: L R
Sampling rate : 48.0 kHz
Frame rate : 46.875 FPS (1024 spf)
Compression mode : Lossy
Stream size : 95.6 MiB (2%)
Title : O'zbek tilida (AxeL)
Language : Uzbek
Default : No
Forced : No
Text #1
ID : 4
Format : VobSub
Muxing mode : zlib
Codec ID : S_VOBSUB
Codec ID/Info : Picture based subtitle format used on DVDs
Duration : 1 h 22 min
Bit rate : 5 042 b/s
Count of elements : 777
Stream size : 2.98 MiB (0%)
Language : Russian
Default : Yes
Forced : No
Text #2
ID : 5
Format : VobSub
Muxing mode : zlib
Codec ID : S_VOBSUB
Codec ID/Info : Picture based subtitle format used on DVDs
Duration : 1 h 20 min
Bit rate : 5 064 b/s
Count of elements : 746
Stream size : 2.91 MiB (0%)
Language : English
Default : No
Forced : No
Text #3
ID : 6
Format : VobSub
Muxing mode : zlib
Codec ID : S_VOBSUB
Codec ID/Info : Picture based subtitle format used on DVDs
Duration : 1 h 9 min
Bit rate : 44 b/s
Count of elements : 5
Stream size : 22.4 KiB (0%)
Language : Russian
Default : No
Forced : Yes
--
.torrent yuklash

Yuqori tezlikda va bepul ko‘chirish!

Qanday yuklab olinadi? · Torrent nima o‘zi? · Reyting va cheklovlar

Profil ShX

UmarShoh

Jins:
Yigit
Staj:
1 yil 4 oy
Xabarlar:
371
Taqiq:

Posterga gap yo'q !

Mavzu yaratish 24-Iyul-2018 18:25 (3 kun o‘tgach)

Iqitibos

Profil ShX

jalolbek97

Jins:
Ko‘rsatilmagan
Staj:
1 yil 2 oy
Xabarlar:
10
Taqiq:

kichkina xajmdaisini joylang tezroq yuklab olamiz shunda

Mavzu yaratish 30-Iyul-2018 23:48 (6 kun o‘tgach)

Iqitibos

Profil ShX

AxeL ®

Jins:
Yigit
Staj:
1 yil 4 oy
Xabarlar:
743

Qayerdan: Gronland, Norway

Taqiq:

5320kichkina xajmdaisini joylang tezroq yuklab olamiz shunda
ertaga reliz qilinadi hudo hohlasa

Mavzu yaratish 31-Iyul-2018 00:29 (41 daqiqa o‘tgach)

Iqitibos

Profil ShX

AxeL ®

Jins:
Yigit
Staj:
1 yil 4 oy
Xabarlar:
743

Qayerdan: Gronland, Norway

Taqiq:

hajmi kichigi yuklandi

Mavzu yaratish 31-Iyul-2018 09:47 (9 soat o‘tgach)

Iqitibos

Profil ShX
Xabarlarni ko‘rsatish:    

Hozirgi vaqt: 23-Iyul 04:04

Vaqtlar farqi: UTC + 5



Siz mavzu yaratishingiz mumkin emas
Siz xabarlarga javob qaytarishingiz mumkin emas
Siz o‘z xabarlaringizni tahrirlashingiz mumkin emas
Siz o‘z xabarlaringizni o‘chirishingiz mumkin emas
Siz so‘rovlarda ovoz berishingiz mumkin emas
Siz xabalarga fayllarni biriktirishingiz mumkin emas
Siz fayllarni ko‘chirishingiz mumkin emas