˂
˃
Tarqatmalar statistikasi
Ko‘chirib bo‘ldim: [ 2 ]
 
     
 
 

AxeL ®

Jins:
Yigit
Staj:
1 yil 4 oy
Xabarlar:
743

Qayerdan: Gronland, Norway

Taqiq:

Shermurodni izlab... / Большое путешествие / The Wild - Chiqqan yili: 2006
Davlat: AQSh, Kanada
Janr: komediya, multfilm, sarguzasht, oilaviy
Davomiyligi: 01:21:35
Tarjima: Professional (Ko'p ovozli kadr ortidan) Gobliddin-Rejissyor: Stiv Uilyams-Ssenariy: Mark Gibson, Filip Halprin
Prodyuser: Clint Goldman, Beau Flynn
Grafik dizayner: Monika Perez-Rollarni ovozlashtirganlar: Kifer Sazerlend, Jeyms Belushi, Eddi Izzard, Janin Garofalo, Uilyam Shatner, Richard Keynd, Greg Sayps,...-Tavsif: Shermurod. U o'kirishni bilmaydi. Bir kuni u katta o'yinda qovun tushirib qoyadi va otasidan dakki eshitgandan keyin qochib ketadi. Shermurodni izlashga tushgan otasi katta sarguzashtlarni boshdan kechirib, boshqa orolga borib qoladi. Uning otasiga Turdixon, Nosir, Olimtoy va Qobilvoylar yordam berishadi...-Videoning sifati: HDRip 720p
Video format: MKV
Video: AVC 1024x552 23.976fps 1 968 Kbps
Audio #1: Dolby AC3 48000Hz 6ch 384kbps Rus
Audio #2: Dolby AC3 48000Hz stereo 192kbps Eng (Original)
Audio #3: MP3 48000Hz stereo 192kbps Gobliddin tarjimasi
Subtitle: Ruscha, Inglizcha

Media Info

General
Unique ID : 81345691862571088545709649169177242075 (0x3D329C41E58764499E03F594C1D9E9DB)
Complete name : D:\Films\Multfilms\Shermurodni izlab.HDRip.720p.Goblin(DUB).mkv
Format : Matroska
Format version : Version 4 / Version 2
File size : 1.56 GiB
Duration : 1h 21mn
Overall bit rate : 2 738 Kbps
Movie name : -=POTROKS=-
Encoded date : UTC 2018-07-30 06:07:32
Writing application : mkvmerge v22.0.0 ('At The End Of The World') 64-bit
Writing library : libebml v1.3.5 + libmatroska v1.4.8
Video
ID : 1
Format : AVC
Format/Info : Advanced Video Codec
Format profile : High@L4.1
Format settings, CABAC : Yes
Format settings, ReFrames : 9 frames
Codec ID : V_MPEG4/ISO/AVC
Duration : 1h 21mn
Bit rate : 1 968 Kbps
Width : 1 024 pixels
Height : 552 pixels
Display aspect ratio : 1.85:1
Frame rate mode : Constant
Frame rate : 23.976 (24000/1001) fps
Color space : YUV
Chroma subsampling : 4:2:0
Bit depth : 8 bits
Scan type : Progressive
Bits/(Pixel*Frame) : 0.145
Stream size : 1.12 GiB (72%)
Title : Bol'shoe.Puteshestvie.2006.HDRip.x264.potroks
Writing library : x264 core 116 r2019M 9cc407d
Encoding settings : cabac=1 / ref=10 / deblock=1:-2:-2 / analyse=0x3:0x133 / me=umh / subme=9 / psy=1 / psy_rd=1.00:0.20 / mixed_ref=1 / me_range=32 / chroma_me=1 / trellis=1 / 8x8dct=1 / cqm=0 / deadzone=21,11 / fast_pskip=1 / chroma_qp_offset=-3 / threads=8 / sliced_threads=0 / nr=0 / decimate=1 / interlaced=0 / bluray_compat=0 / constrained_intra=0 / bframes=3 / b_pyramid=1 / b_adapt=2 / b_bias=0 / direct=3 / weightb=1 / open_gop=0 / weightp=2 / keyint=230 / keyint_min=23 / scenecut=40 / intra_refresh=0 / rc_lookahead=40 / rc=2pass / mbtree=1 / bitrate=1968 / ratetol=1.0 / qcomp=0.60 / qpmin=10 / qpmax=51 / qpstep=4 / cplxblur=20.0 / qblur=0.5 / ip_ratio=1.40 / aq=1:1.00
Language : English
Default : Yes
Forced : No
Audio #1
ID : 2
Format : AC-3
Format/Info : Audio Coding 3
Mode extension : CM (complete main)
Format settings, Endianness : Big
Codec ID : A_AC3
Duration : 1h 21mn
Bit rate mode : Constant
Bit rate : 384 Kbps
Channel(s) : 6 channels
Channel positions : Front: L C R, Side: L R, LFE
Sampling rate : 48.0 KHz
Frame rate : 31.250 fps (1536 spf)
Compression mode : Lossy
Stream size : 224 MiB (14%)
Title : Dub [AC3, 6 ch, 384 kbps]
Language : Russian
Default : Yes
Forced : No
Audio #2
ID : 3
Format : AC-3
Format/Info : Audio Coding 3
Mode extension : CM (complete main)
Format settings, Endianness : Big
Codec ID : A_AC3
Duration : 1h 21mn
Bit rate mode : Constant
Bit rate : 192 Kbps
Channel(s) : 2 channels
Channel positions : Front: L R
Sampling rate : 48.0 KHz
Frame rate : 31.250 fps (1536 spf)
Compression mode : Lossy
Stream size : 112 MiB (7%)
Title : Original [AC3, 2 ch, 192 kbps]
Language : English
Default : No
Forced : No
Audio #3
ID : 7
Format : MPEG Audio
Format version : Version 1
Format profile : Layer 3
Mode : Joint stereo
Mode extension : MS Stereo
Codec ID : A_MPEG/L3
Codec ID/Hint : MP3
Duration : 1h 21mn
Bit rate mode : Constant
Bit rate : 192 Kbps
Channel(s) : 2 channels
Sampling rate : 48.0 KHz
Frame rate : 41.667 fps (1152 spf)
Compression mode : Lossy
Stream size : 112 MiB (7%)
Title : AxeL (Gobliddin)
Language : Uzbek
Default : No
Forced : No
Text #1
ID : 4
Format : UTF-8
Codec ID : S_TEXT/UTF8
Codec ID/Info : UTF-8 Plain Text
Duration : 1h 21mn
Bit rate : 112 bps
Count of elements : 1255
Stream size : 67.0 KiB (0%)
Title : Full
Language : Russian
Default : No
Forced : No
Text #2
ID : 5
Format : UTF-8
Codec ID : S_TEXT/UTF8
Codec ID/Info : UTF-8 Plain Text
Duration : 1h 21mn
Bit rate : 68 bps
Count of elements : 1434
Stream size : 41.1 KiB (0%)
Title : Full
Language : English
Default : No
Forced : No
Text #3
ID : 6
Format : UTF-8
Codec ID : S_TEXT/UTF8
Codec ID/Info : UTF-8 Plain Text
Duration : 1h 21mn
Bit rate : 76 bps
Count of elements : 1578
Stream size : 45.8 KiB (0%)
Title : SDH
Language : English
Default : No
Forced : No

Lavhalar

.torrent yuklash

Yuqori tezlikda va bepul ko‘chirish!

Qanday yuklab olinadi? · Torrent nima o‘zi? · Reyting va cheklovlar



So‘ngi marta tahrirlandi: AxeL (2018-07-30 13:06), Jami tahrirlangan 4 marta
Profil ShX

AxeL ®

Jins:
Yigit
Staj:
1 yil 4 oy
Xabarlar:
743

Qayerdan: Gronland, Norway

Taqiq:

Ko'rishni va ko'chirishni tavsiya qilaman, o'ta kulguli multfilm...

Mavzu yaratish 30-Iyul-2018 12:18 (12 daqiqa o‘tgach)

Iqitibos

Profil ShX

MRLG

Jins:
Yigit
Staj:
1 yil 11 oy
Xabarlar:
609
Taqiq:

AxeL, Video formatni to'g'rilab qo'yarsiz. MP4 emas, MKV. MPEG4 Video (H264) emas. AVC

Mavzu yaratish 30-Iyul-2018 12:25 (6 daqiqa o‘tgach)

Iqitibos

Profil ShX

AxeL ®

Jins:
Yigit
Staj:
1 yil 4 oy
Xabarlar:
743

Qayerdan: Gronland, Norway

Taqiq:

MRLG, xa xa albatta, texnik xato ketibdi, shablonni boshqa relizdan olgandim, tog'rilash esdan chiqibdi

Mavzu yaratish 30-Iyul-2018 12:36 (11 daqiqa o‘tgach)

Iqitibos

Profil ShX

UmarShoh

Jins:
Yigit
Staj:
1 yil 4 oy
Xabarlar:
371
Taqiq:

AxeL, Xamkasb relizga Gap yo'q +5555 !!! Pakana burunboy degan multfilm bor manda shuni tayyorlayotgandim shunga manga poster qilib bering o'zizi relizlariznikidek qilib !

Mavzu yaratish 31-Iyul-2018 07:37 (19 soat o‘tgach)

Iqitibos

Profil ShX

AxeL ®

Jins:
Yigit
Staj:
1 yil 4 oy
Xabarlar:
743

Qayerdan: Gronland, Norway

Taqiq:

UmarShoh, xo'p, posterni yozuvini o'chirsa bachkanalashib qolmaydigan turidan ShX ga tashavorsez, 10 minutda tayorlab beraman

Mavzu yaratish 31-Iyul-2018 07:44 (7 daqiqa o‘tgach)

Iqitibos

Profil ShX

Unofficial

Jins:
Yigit
Staj:
1 yil 3 oy
Xabarlar:
449

Qayerdan: Nukus

Taqiq:

AxeL, bundoq tarqatmada tursangiz ozgina qolgandi yuklab olsak

Mavzu yaratish 06-Avg-2018 14:20 (6 kun o‘tgach)

Iqitibos

Profil ShX

MrMusayev

Jins:
Yigit
Staj:
1 yil
Xabarlar:
15
Taqiq:

yuklashga yordam berila

Mavzu yaratish 07-Avg-2018 12:29 (22 soat o‘tgach)

Iqitibos

Profil ShX

Soft-Release

Jins:
Yigit
Staj:
1 yil 4 oy
Xabarlar:
807

Qayerdan: Kattakurgan

Taqiq:

MrMusayev, Teredo o'rnatilganmi sizda?

Mavzu yaratish 07-Avg-2018 13:13 (44 daqiqa o‘tgach)

Iqitibos

Profil ShX

MrMusayev

Jins:
Yigit
Staj:
1 yil
Xabarlar:
15
Taqiq:

Soft-Release, xa o'rnatilgan 76 foizdan keyin uyog'ini ololmayabti

Mavzu yaratish 10-Avg-2018 11:33 (2 kun 22 soat o‘tgach)

Iqitibos

Profil ShX

MrMusayev

Jins:
Yigit
Staj:
1 yil
Xabarlar:
15
Taqiq:

nma qilsa bo'ladi yordam bervorila

Mavzu yaratish 10-Avg-2018 11:33 (21 soniya o‘tgach)

Iqitibos

Profil ShX

MrMusayev

Jins:
Yigit
Staj:
1 yil
Xabarlar:
15
Taqiq:

nega ko'chirmayapti

Mavzu yaratish 11-Avg-2018 10:04 (22 soat o‘tgach)

Iqitibos

Profil ShX
Xabarlarni ko‘rsatish:    

Hozirgi vaqt: 23-Iyul 03:52

Vaqtlar farqi: UTC + 5



Siz mavzu yaratishingiz mumkin emas
Siz xabarlarga javob qaytarishingiz mumkin emas
Siz o‘z xabarlaringizni tahrirlashingiz mumkin emas
Siz o‘z xabarlaringizni o‘chirishingiz mumkin emas
Siz so‘rovlarda ovoz berishingiz mumkin emas
Siz xabalarga fayllarni biriktirishingiz mumkin emas
Siz fayllarni ko‘chirishingiz mumkin emas