˂
˃
Tarqatmalar statistikasi
Ko‘chirmoqdaman: [ 1 ]
Ko‘chirib bo‘ldim: [ 2 ]
 
     
 
 

AxeL ®

Jins:
Yigit
Staj:
1 yil 4 oy
Xabarlar:
743

Qayerdan: Gronland, Norway

Taqiq:

Shiroq 2 / Shrek 2 / Шрек 2 / Shrek 2- Chiqqan yili: 2004
Davlat: AQSh
Janr: multfilm, fentezi, kulguli, sarguzasht, oilaviy
Davomiyligi: 01:32:23
Tarjima: Havaskor (Ko'p ovozli kadr ortidan) Gobliddin tarjimasi-Rejissyor: Endryu Adamson, Kelli Esberi, Konrad Vernon-Ssenariy: Endryu Adamson, Djo Stillman, Dj David Stem
Prodyuser: Jeffri Katsenberg, David Lipman, Aron Uorner
Kompozitor: Djim Bodjios, David Brayson, Adam Durits
Rassom: Giyom Aretos, Stiv Pilcher, Ayzis Massenden-Rollarni ovozlashtirganlar: Mike Myers, Eddie Murphy, Cameron Diaz, Julie Andrews, Antonio Banderas, John Cleese, Rupert Everett, ...-Tavsif: Шрэк и Фиона возвращаются после медового месяца и находят письмо от родителей Фионы с приглашением на ужин. Однако те не подозревают, что их дочь тоже стала огром! Вместе с Осликом счастливая пара отправляется в путешествие, полное неожиданностей, и попадает в круговорот событий, во время которых приобретает множество друзей…- -Byudjet: $150 000 000
Muhlislari: AQSh 71.1 mln, Buyuk Britaniya 10.7 mln, Ispaniya 6.11 mln
Premyera (Dunyo bo'ylab): 15-may, 2004-yil
DVDga reliz: 18 -mart, 2013-yil-Videoning sifati: HDRip
Video format: MP4
Video: MPEG4 Video (H264) 720x400 1 014 Kbps
Audio #1: AAC 48000Hz stereo 149kbps Gobliddin tarjimasi

Media Info

General
Complete name : D:\Films\Multfilms\Shrek.2.Gobliddin(DUB).mp4
Format : MPEG-4
Format profile : Base Media
Codec ID : isom (isom/iso2/avc1/mp41)
File size : 773 MiB
Duration : 1h 32mn
Overall bit rate mode : Variable
Overall bit rate : 1 169 Kbps
Writing application : Lavf55.33.100
Video
ID : 1
Format : AVC
Format/Info : Advanced Video Codec
Format profile : High@L3
Format settings, CABAC : Yes
Format settings, ReFrames : 4 frames
Codec ID : avc1
Codec ID/Info : Advanced Video Coding
Duration : 1h 32mn
Bit rate : 1 014 Kbps
Width : 720 pixels
Height : 400 pixels
Display aspect ratio : 16:9
Original display aspect ratio : 16:9
Frame rate mode : Variable
Frame rate : 23.976 fps
Color space : YUV
Chroma subsampling : 4:2:0
Bit depth : 8 bits
Scan type : Progressive
Bits/(Pixel*Frame) : 0.147
Stream size : 670 MiB (87%)
Writing library : x264 core 146 r109 121396c
Encoding settings : cabac=1 / ref=3 / deblock=1:0:0 / analyse=0x3:0x113 / me=hex / subme=7 / psy=1 / psy_rd=1.00:0.00 / mixed_ref=1 / me_range=16 / chroma_me=1 / trellis=1 / 8x8dct=1 / cqm=0 / deadzone=21,11 / fast_pskip=1 / chroma_qp_offset=-2 / threads=12 / lookahead_threads=2 / sliced_threads=0 / nr=0 / decimate=1 / interlaced=0 / bluray_compat=0 / constrained_intra=0 / bframes=3 / b_pyramid=2 / b_adapt=1 / b_bias=0 / direct=1 / weightb=1 / open_gop=0 / weightp=2 / keyint=250 / keyint_min=23 / scenecut=40 / intra_refresh=0 / rc_lookahead=40 / rc=abr / mbtree=1 / bitrate=1014 / ratetol=1.0 / qcomp=0.60 / qpmin=0 / qpmax=69 / qpstep=4 / ip_ratio=1.40 / aq=1:1.00
Audio
ID : 2
Format : AAC
Format/Info : Advanced Audio Codec
Format profile : LC
Codec ID : 40
Duration : 1h 32mn
Bit rate mode : Variable
Bit rate : 150 Kbps
Maximum bit rate : 320 Kbps
Channel(s) : 2 channels
Channel positions : Front: L R
Sampling rate : 48.0 KHz
Frame rate : 46.875 fps (1024 spf)
Compression mode : Lossy
Stream size : 98.8 MiB (13%)
Default : Yes
Alternate group : 1
--
.torrent yuklash

Yuqori tezlikda va bepul ko‘chirish!

Qanday yuklab olinadi? · Torrent nima o‘zi? · Reyting va cheklovlar

Profil ShX

informatika

Jins:
Ko‘rsatilmagan
Staj:
8 oy 14 kun
Xabarlar:
3
Taqiq:

admin bormi

Mavzu yaratish 22-Noy-2018 16:41 (3 oy 9 kun o‘tgach)

Iqitibos

Profil ShX
Xabarlarni ko‘rsatish:    

Hozirgi vaqt: 23-Iyul 03:28

Vaqtlar farqi: UTC + 5



Siz mavzu yaratishingiz mumkin emas
Siz xabarlarga javob qaytarishingiz mumkin emas
Siz o‘z xabarlaringizni tahrirlashingiz mumkin emas
Siz o‘z xabarlaringizni o‘chirishingiz mumkin emas
Siz so‘rovlarda ovoz berishingiz mumkin emas
Siz xabalarga fayllarni biriktirishingiz mumkin emas
Siz fayllarni ko‘chirishingiz mumkin emas