˂
˃
Tarqatmalar statistikasi
Yoʻq
 
     
 
 

AxeL ®

Jins:
Yigit
Staj:
1 yil 4 oy
Xabarlar:
743

Qayerdan: Gronland, Norway

Taqiq:

-G.I Joe: Ilon hamlasi 2 / Бросок кобры 2 / G.I. Joe: Retaliation- Chiqqan yili: 2013
Davlat: AQSh
Janr: fantastika, jangari, triller, sarguzasht
Davomiyligi: 01:50:15
Tarjima: Professional (ko'p ovozli, kadr ortidan) O'zbek tilida-Rejissyor: Jon M.Chu-Rollarda: Dueyn Jonson, Edrian Paliki, Bryus Uills, Rey Park, Li Byoon Xon, D.Dj Kortona, Jonatan Prays, Elodi Yung, Lyuk Breysi, Rey Stivenson-Tavsif: Ikkinchi qismda "Ji.Ay. Joy" yana "Kobra" guruhiga qarshi kurashni e'lon qiladi va hukumat bilan to'qnashuvga kirishadi ...- -Videoning sifati: BDRip 720p 60 fps
Video format: MKV
Video: MPEG4 Video (H264) 1280x532 59.94fps 7 828 Kbps
Audio #1: Dolby AC3 48000Hz 6ch 448kbps Rus tilida
Audio #2: MP3 44100Hz stereo 128kbps O'zbek tilida

Media info

General
Unique ID : 105774931877576993926492164958996092197 (0x4F9382C82B90E95B49638FCBFE335525)
Complete name : D:\Films\Tarjima\Ilon.Hamlasi.Rus.Uzb.(DUB).BDRip.1080p.mkv
Format : Matroska
Format version : Version 4 / Version 2
File size : 6.47 GiB
Duration : 1h 50mn
Overall bit rate : 8 408 Kbps
Encoded date : UTC 2018-08-13 11:03:58
Writing application : mkvmerge v22.0.0 ('At The End Of The World') 64-bit
Writing library : libebml v1.3.5 + libmatroska v1.4.8
Video
ID : 1
Format : AVC
Format/Info : Advanced Video Codec
Format profile : High@L4
Format settings, CABAC : Yes
Format settings, ReFrames : 8 frames
Codec ID : V_MPEG4/ISO/AVC
Duration : 1h 50mn
Bit rate : 7 828 Kbps
Width : 1 280 pixels
Height : 532 pixels
Display aspect ratio : 2.40:1
Frame rate mode : Constant
Frame rate : 59.940 (59940/1000) fps
Color space : YUV
Chroma subsampling : 4:2:0
Bit depth : 8 bits
Scan type : Progressive
Bits/(Pixel*Frame) : 0.192
Stream size : 6.03 GiB (93%)
Writing library : x264 core 130 r2273 b3065e6
Encoding settings : cabac=1 / ref=8 / deblock=1:-3:-2 / analyse=0x3:0x133 / me=umh / subme=7 / psy=1 / psy_rd=1.00:0.15 / mixed_ref=1 / me_range=18 / chroma_me=1 / trellis=2 / 8x8dct=1 / cqm=0 / deadzone=21,11 / fast_pskip=0 / chroma_qp_offset=-3 / threads=6 / lookahead_threads=1 / sliced_threads=0 / nr=0 / decimate=0 / interlaced=0 / bluray_compat=0 / constrained_intra=0 / bframes=5 / b_pyramid=2 / b_adapt=2 / b_bias=0 / direct=3 / weightb=1 / open_gop=0 / weightp=2 / keyint=599 / keyint_min=59 / scenecut=40 / intra_refresh=0 / rc_lookahead=60 / rc=crf / mbtree=1 / crf=16.0 / qcomp=0.65 / qpmin=0 / qpmax=69 / qpstep=4 / ip_ratio=1.45 / aq=1:1.20
Default : Yes
Forced : No
Audio #1
ID : 2
Format : AC-3
Format/Info : Audio Coding 3
Mode extension : CM (complete main)
Format settings, Endianness : Big
Codec ID : A_AC3
Duration : 1h 50mn
Bit rate mode : Constant
Bit rate : 448 Kbps
Channel(s) : 6 channels
Channel positions : Front: L C R, Side: L R, LFE
Sampling rate : 48.0 KHz
Frame rate : 31.250 fps (1536 spf)
Compression mode : Lossy
Stream size : 353 MiB (5%)
Default : Yes
Forced : No
Audio #2
ID : 3
Format : MPEG Audio
Format version : Version 1
Format profile : Layer 3
Mode : Joint stereo
Codec ID : A_MPEG/L3
Codec ID/Hint : MP3
Duration : 1h 50mn
Bit rate mode : Constant
Bit rate : 128 Kbps
Channel(s) : 2 channels
Sampling rate : 44.1 KHz
Frame rate : 38.281 fps (1152 spf)
Compression mode : Lossy
Stream size : 101 MiB (2%)
Title : O'zbek tilida (AxeL)
Writing library : LAME3.99.5
Language : Uzbek
Default : No
Forced : No
-LAVHALAR--Sizlar uchun maxsus multfilm moderatori AxeL tomonidan tayyorlandi!-
.torrent yuklash

Yuqori tezlikda va bepul ko‘chirish!

Qanday yuklab olinadi? · Torrent nima o‘zi? · Reyting va cheklovlar



So‘ngi marta tahrirlandi: AxeL (2018-08-14 16:12), Jami tahrirlangan 6 marta
Profil ShX

MRLG

Jins:
Yigit
Staj:
1 yil 11 oy
Xabarlar:
609
Taqiq:

AxeL, Bu ilon hamlasi 2 emasmi????))) 2013-yil chiqqan.

Mavzu yaratish 14-Avg-2018 15:20 (16 daqiqa o‘tgach)

Iqitibos

Profil ShX

AxeL ®

Jins:
Yigit
Staj:
1 yil 4 oy
Xabarlar:
743

Qayerdan: Gronland, Norway

Taqiq:

MRLG, topdiz e adashimman)))) tog'rilab qo'ydim

Mavzu yaratish 14-Avg-2018 15:24 (4 daqiqa o‘tgach)

Iqitibos

Profil ShX

AxeL ®

Jins:
Yigit
Staj:
1 yil 4 oy
Xabarlar:
743

Qayerdan: Gronland, Norway

Taqiq:

Hajmi kattaligiga etibor qimela))), oltin uchun hayr ehson qilish knopkasi bekorga qo'shilmagan))) Katta o'lchamli TV da sifatli ko'rganga ne yetsin?

Mavzu yaratish 14-Avg-2018 15:30 (5 daqiqa o‘tgach)

Iqitibos

Profil ShX

MRLG

Jins:
Yigit
Staj:
1 yil 11 oy
Xabarlar:
609
Taqiq:

5648MRLG, topdiz e adashimman)))) tog'rilab qo'ydim
faqat "2" ni qo'shib qo'ygan bilan ish bitmaydi. Bundagi hamma ma'lumotlar 1-qismga tegishli. Filmni inglizcha nomi: G.I. Joe: Retaliation
Kamchiliklarni to'g'rilasangiz, keyin oltin tarqatma maqomini beramiz.

Mavzu yaratish 14-Avg-2018 15:34 (4 daqiqa o‘tgach)

Iqitibos

Profil ShX

AxeL ®

Jins:
Yigit
Staj:
1 yil 4 oy
Xabarlar:
743

Qayerdan: Gronland, Norway

Taqiq:

5651
faqat "2" ni qo'shib qo'ygan bilan ish bitmaydi. Bundagi hamma ma'lumotlar 1-qismga tegishli. Filmni inglizcha nomi: G.I. Joe: Retaliation
Kamchiliklarni to'g'rilasangiz, keyin oltin tarqatma maqomini beramiz.
endi ko'ringchi, hammasi tog'rilandi

Mavzu yaratish 14-Avg-2018 15:43 (8 daqiqa o‘tgach)

Iqitibos

Profil ShX

ciiacuteji

Jins:
Ko‘rsatilmagan
Staj:
1 yil 8 oy
Xabarlar:
1
Taqiq:

это ж не fhd, а простой hd епт

Mavzu yaratish 14-Avg-2018 22:07 (6 soat o‘tgach)

Iqitibos

Profil ShX
Xabarlarni ko‘rsatish:    

Hozirgi vaqt: 23-Iyul 04:12

Vaqtlar farqi: UTC + 5



Siz mavzu yaratishingiz mumkin emas
Siz xabarlarga javob qaytarishingiz mumkin emas
Siz o‘z xabarlaringizni tahrirlashingiz mumkin emas
Siz o‘z xabarlaringizni o‘chirishingiz mumkin emas
Siz so‘rovlarda ovoz berishingiz mumkin emas
Siz xabalarga fayllarni biriktirishingiz mumkin emas
Siz fayllarni ko‘chirishingiz mumkin emas