˂
˃
Tarqatmalar statistikasi
Ko‘chirmoqdaman: [ 2 ]
Ko‘chirib bo‘ldim: [ 2 ]
 
     
 
 

AxeL ®

Jins:
Yigit
Staj:
1 yil 4 oy
Xabarlar:
743

Qayerdan: Gronland, Norway

Taqiq:

-Zamonlar osha Ikkilik / Пришельцы Дилогия / Les Visiteurs Dilogy-Chiqqan yili: 1993, 1998
Davlat: Fransiya
Tarjima: Professional (ko'p ovozli, kadr ortidan) O'zbek tilida
Film: Yoshlar telekanalida tarjima qilingan
Rejisser: Jan-Mari Puare
Sifat: HDRip
-

Zamonlar osha / Пришельцы / Les Visiteurs

-Zamonlar osh / Пришельцы / Les Visiteurs- Chiqqan yili: 1993
Davlat: Fransiya
Janr: fentezi, kulguli
Davomiyligi: 01:46:44
Tarjima: Professional (ko'p ovozli, kadr ortidan) O'zbek tilida-Rejissyor: Jan-Mari Puare-Rollarda: Kristian Klavie, Jan Reno, Valeri Lemertsier, Mari-Enn Shazel, Kristian Bujoa, Izabell Nanti, Jerard Seti, ...-Tavsif: Fransiya 1122 yil. Yovuz jodugarning la'natiga duchor bo'lgan Gudfroi de Montmiray kelinning otasini o'ldiradi. Godfroi buyuk sehrgar Ewesbiusga murojaat qiladi, u hisob-kitob vaqt o'tmishga o'tishi va xatoni tuzatishi kerakligini bildiradi. Montmiray bu taklifga rozi bo'ladi, lekin sehrgarning xatosi tufayli u va uning xizmatkori hozirgi 90-yillarda borib qoladi. Yigirmanchi asrda ular ko'pgina sarguzasht va avlodlari bilan uchrashishni kutadilar ...- -Videoning sifati: HDRip
Video format: AVI
Video: MPEG4 Video (H264) 722x300 24fps 1544kbps
Audio #1: MP3 44100Hz stereo 192kbps O'zbek tilida


Media info

General
Complete name : D:\Films\Tarjima\Zamonlar osha.Dilogy\Zamonlar osha.avi
Format : AVI
Format/Info : Audio Video Interleave
Format profile : OpenDML
File size : 1.30 GiB
Duration : 1h 46mn
Overall bit rate : 1 750 Kbps
Video
ID : 0
Format : AVC
Format/Info : Advanced Video Codec
Format profile : High@L3
Format settings, CABAC : Yes
Format settings, ReFrames : 3 frames
Codec ID : H264
Duration : 1h 46mn
Bit rate : 1 545 Kbps
Width : 722 pixels
Height : 300 pixels
Display aspect ratio : 2.40:1
Frame rate mode : Variable
Frame rate : 24.000 fps
Color space : YUV
Chroma subsampling : 4:2:0
Bit depth : 8 bits
Scan type : Progressive
Bits/(Pixel*Frame) : 0.297
Stream size : 1.15 GiB (88%)
Writing library : x264 core 142 r2455 021c0dc
Encoding settings : cabac=1 / ref=3 / deblock=1:0:0 / analyse=0x3:0x113 / me=hex / subme=7 / psy=1 / psy_rd=1.00:0.00 / mixed_ref=1 / me_range=16 / chroma_me=1 / trellis=1 / 8x8dct=1 / cqm=0 / deadzone=21,11 / fast_pskip=1 / chroma_qp_offset=-4 / threads=4 / lookahead_threads=1 / sliced_threads=0 / nr=0 / decimate=1 / interlaced=0 / bluray_compat=0 / constrained_intra=0 / bframes=0 / weightp=2 / keyint=250 / keyint_min=25 / scenecut=40 / intra_refresh=0 / rc_lookahead=0 / rc=crf / mbtree=0 / crf=18.0 / qcomp=0.60 / qpmin=4 / qpmax=69 / qpstep=4 / vbv_maxrate=12500 / vbv_bufsize=12500 / crf_max=0.0 / nal_hrd=none / filler=0 / ip_ratio=1.40 / aq=1:1.00
Audio
ID : 1
Format : MPEG Audio
Format version : Version 1
Format profile : Layer 3
Mode : Joint stereo
Mode extension : MS Stereo
Codec ID : 55
Codec ID/Hint : MP3
Duration : 1h 46mn
Bit rate mode : Constant
Bit rate : 192 Kbps
Channel(s) : 2 channels
Sampling rate : 44.1 KHz
Compression mode : Lossy
Stream size : 147 MiB (11%)
Alignment : Split accross interleaves
Interleave, duration : 26 ms (0.63 video frame)
Writing library : LAME3.97
-LAVHALAR--

Zamonlar osha 2: Vaqt yo'lakchasi / Пришельцы 2: Коридоры времени / Les couloirs du temps: Les visiteurs 2

-Zamonlar osha 2: Vaqt yo'lakchasi / Пришельцы 2: Коридоры времени / Les couloirs du temps: Les visiteurs 2- Chiqqan yili: 1998
Davlat: Fransiya
Janr: fentezi, kulguli, fantastika, oilaviy
Davomiyligi:
Tarjima: Professional (ko'p ovozli, kadr ortidan) O'zbek tilida-Rejissyor: Jan-Mari Puare-Rollarda: Kristian Klavie, Jan Reno, Valeri Lemertsier, Mari-Enn Shazel, Kristian Bujoa, Izabell Nanti, Jerard Seti, Patrik Byurjel, Erik Averlan, Armel, Pyer Vial, Frank-Olivie Bonne, ...-Tavsif: Agar sehrli ilksirni ichganingizda va o'rta asrlarda yashasangiz, mobil telefoningizga va qutqaruv xizmatiga tayanmang: hech kim muqaddas Inkvizitsiya pionlaridan qochib qutula olmadi. Va orqaga qaytib ketolmaysan, chunki sizning davringizda sizning juftliksiz, o'rta asr jokisi Jak mavjud.
Sizning umidingiz, jim turmushga chiqa olmaydigan jasur qadimgi Montmiraydir, chunki Jak uning kelajagining qaynana muqaddas yodgorliklaridan o'g'irlab ketgan va bizning vaqtimizda ularni yashirgan.
Endi buyuk sehrgar Eusebiusning jozibasi yordamida grafika vaqtni qayta tiklash, ajdodlarni o'tmishga yuborib, kelajakka avlod yuborish kerak, aks holda vaqt koridorlari yopilmas va umumiy falokat yuz beradi.- -Videoning sifati: HDRip
Video format: AVI
Video: MPEG4 Video (H264) 722x300 25fps 1521kbps
Audio #1: MP3 44100Hz stereo 192kbps O'zbek tilida

Media Info

General
Complete name : D:\Films\Tarjima\Zamonlar osha.Dilogy\Zamonlar osha 2.avi
Format : AVI
Format/Info : Audio Video Interleave
Format profile : OpenDML
File size : 1.36 GiB
Duration : 1h 52mn
Overall bit rate : 1 727 Kbps
Video
ID : 0
Format : AVC
Format/Info : Advanced Video Codec
Format profile : High@L3
Format settings, CABAC : Yes
Format settings, ReFrames : 3 frames
Codec ID : H264
Duration : 1h 52mn
Bit rate : 1 521 Kbps
Width : 722 pixels
Height : 300 pixels
Display aspect ratio : 2.40:1
Frame rate mode : Variable
Frame rate : 25.000 fps
Color space : YUV
Chroma subsampling : 4:2:0
Bit depth : 8 bits
Scan type : Progressive
Bits/(Pixel*Frame) : 0.281
Stream size : 1.20 GiB (88%)
Writing library : x264 core 142 r2455 021c0dc
Encoding settings : cabac=1 / ref=3 / deblock=1:0:0 / analyse=0x3:0x113 / me=hex / subme=7 / psy=1 / psy_rd=1.00:0.00 / mixed_ref=1 / me_range=16 / chroma_me=1 / trellis=1 / 8x8dct=1 / cqm=0 / deadzone=21,11 / fast_pskip=1 / chroma_qp_offset=-4 / threads=4 / lookahead_threads=1 / sliced_threads=0 / nr=0 / decimate=1 / interlaced=0 / bluray_compat=0 / constrained_intra=0 / bframes=0 / weightp=2 / keyint=250 / keyint_min=25 / scenecut=40 / intra_refresh=0 / rc_lookahead=0 / rc=crf / mbtree=0 / crf=18.0 / qcomp=0.60 / qpmin=4 / qpmax=69 / qpstep=4 / vbv_maxrate=12500 / vbv_bufsize=12500 / crf_max=0.0 / nal_hrd=none / filler=0 / ip_ratio=1.40 / aq=1:1.00
Audio
ID : 1
Format : MPEG Audio
Format version : Version 1
Format profile : Layer 3
Mode : Joint stereo
Mode extension : MS Stereo
Codec ID : 55
Codec ID/Hint : MP3
Duration : 1h 52mn
Bit rate mode : Constant
Bit rate : 192 Kbps
Channel(s) : 2 channels
Sampling rate : 44.1 KHz
Compression mode : Lossy
Stream size : 155 MiB (11%)
Alignment : Split accross interleaves
Interleave, duration : 26 ms (0.65 video frame)
Interleave, preload duration : 156 ms
Writing library : LAME3.97
-LAVHALAR-
.torrent yuklash

Yuqori tezlikda va bepul ko‘chirish!

Qanday yuklab olinadi? · Torrent nima o‘zi? · Reyting va cheklovlar



So‘ngi marta tahrirlandi: AxeL (2018-08-21 11:18), Jami tahrirlangan 3 marta
Profil ShX

AxeL ®

Jins:
Yigit
Staj:
1 yil 4 oy
Xabarlar:
743

Qayerdan: Gronland, Norway

Taqiq:

3 chi qismini tayyorlashga vaqt bo'lmadi, boshqa proektlar ham bor, vaqt bo'lganda 3 qismi ham joylanadi

Mavzu yaratish 21-Avg-2018 08:33 (16 daqiqa o‘tgach)

Iqitibos

Profil ShX

MRLG

Jins:
Yigit
Staj:
1 yil 11 oy
Xabarlar:
609
Taqiq:

AxeL, Tavsiflarni ham tarjima qilish kerakda.

Mavzu yaratish 21-Avg-2018 10:40 (2 soat 7 daqiqa o‘tgach)

Iqitibos

Profil ShX

AxeL ®

Jins:
Yigit
Staj:
1 yil 4 oy
Xabarlar:
743

Qayerdan: Gronland, Norway

Taqiq:

5733AxeL, Tavsiflarni ham tarjima qilish kerakda.
bajarildi

Mavzu yaratish 21-Avg-2018 10:53 (13 daqiqa o‘tgach)

Iqitibos

Profil ShX

MRLG

Jins:
Yigit
Staj:
1 yil 11 oy
Xabarlar:
609
Taqiq:

Yovuz fohishaxonning (колдун) Jodugar desa to'g'ri bo'ladi))))

Mavzu yaratish 21-Avg-2018 11:11 (17 daqiqa o‘tgach)

Iqitibos

Profil ShX

AxeL ®

Jins:
Yigit
Staj:
1 yil 4 oy
Xabarlar:
743

Qayerdan: Gronland, Norway

Taqiq:

5738Yovuz fohishaxonning (колдун) Jodugar desa to'g'ri bo'ladi))))
google translatening mahorati

Mavzu yaratish 21-Avg-2018 11:18 (7 daqiqa o‘tgach)

Iqitibos

Profil ShX
Xabarlarni ko‘rsatish:    

Hozirgi vaqt: 23-Iyul 03:53

Vaqtlar farqi: UTC + 5



Siz mavzu yaratishingiz mumkin emas
Siz xabarlarga javob qaytarishingiz mumkin emas
Siz o‘z xabarlaringizni tahrirlashingiz mumkin emas
Siz o‘z xabarlaringizni o‘chirishingiz mumkin emas
Siz so‘rovlarda ovoz berishingiz mumkin emas
Siz xabalarga fayllarni biriktirishingiz mumkin emas
Siz fayllarni ko‘chirishingiz mumkin emas