˂
˃
 

AxeL ®

Jins:
Yigit
Staj:
1 yil 4 oy
Xabarlar:
743

Qayerdan: Gronland, Norway

Taqiq:

Halk Ikkitalik / Халк Дилогия / Hulk DilogyChiqqan yili: 2003, 2008
Janr: fantastika, jangari, fentezi, triller
Rejisser: Eng Li, Lui Leterye
Tarjima: Professional (ko'p ovozli, kadr ortidan) YoshlarTV

Halk / Халк / Hulk

Halk / Халк / Hulk- Chiqqan yili: 2003
Davlat: AQSh
Janr: fantastika, jangari, fentezi, triller
Davomiyligi: 02:18:07-Tarjima: Professional (Ko'p ovozli kadr ortidan) YoshlarTV-Rejissyor: Eng Li-Rollarda: Erik Bana, Jennifer Konnelli, Sem Elliot, Josh Lukas, Nik Nolti, Pol Kirsi, Kara Buono, Todd Tesen, Selia Veston,...-Tavsif: Doktor Bryus Benner qandaydir tadqiqotlar tufayli g'ayrioddiy jismoniy kuchga ega bo'ladi. Buni ko'rgan xalq orasida vahima uyg'onadi. Hukumat bunga qarshi. Voqealar rivojini esa bizda tomosha qiling...-Videoning sifati: HDRip
Video format: MKV
Video: MPEG4 Video (H264) 720x384 23.976fps 1 014 Kbps
Audio #1: AAC 48000Hz 6ch 128 Kbps Rus tilida
Audio #2: MP3 44100Hz stereo 192kbps Yoshlar, O'zbek tilida

Media Info

General
Unique ID : 228574538088551594097222542305626326041 (0xABF5DAD06EA1768FDF980199057E8419)
Complete name : D:\Films\Tarjima\Halk.Dilogy.AxeL\Halk.1.HDRip.AxeL.mkv
Format : Matroska
Format version : Version 4 / Version 2
File size : 1.30 GiB
Duration : 2h 18mn
Overall bit rate : 1 348 Kbps
Encoded date : UTC 2018-08-22 19:02:29
Writing application : mkvmerge v22.0.0 ('At The End Of The World') 64-bit
Writing library : libebml v1.3.5 + libmatroska v1.4.8
Video
ID : 1
Format : AVC
Format/Info : Advanced Video Codec
Format profile : High@L3
Format settings, CABAC : Yes
Format settings, ReFrames : 4 frames
Codec ID : V_MPEG4/ISO/AVC
Duration : 2h 18mn
Bit rate : 1 014 Kbps
Width : 720 pixels
Height : 384 pixels
Display aspect ratio : 1.85:1
Frame rate mode : Constant
Frame rate : 23.976 (24000/1001) fps
Color space : YUV
Chroma subsampling : 4:2:0
Bit depth : 8 bits
Scan type : Progressive
Bits/(Pixel*Frame) : 0.153
Stream size : 1 014 MiB (76%)
Writing library : x264 core 146 r109 121396c
Encoding settings : cabac=1 / ref=3 / deblock=1:0:0 / analyse=0x3:0x113 / me=hex / subme=7 / psy=1 / psy_rd=1.00:0.00 / mixed_ref=1 / me_range=16 / chroma_me=1 / trellis=1 / 8x8dct=1 / cqm=0 / deadzone=21,11 / fast_pskip=1 / chroma_qp_offset=-2 / threads=12 / lookahead_threads=2 / sliced_threads=0 / nr=0 / decimate=1 / interlaced=0 / bluray_compat=0 / constrained_intra=0 / bframes=3 / b_pyramid=2 / b_adapt=1 / b_bias=0 / direct=1 / weightb=1 / open_gop=0 / weightp=2 / keyint=250 / keyint_min=23 / scenecut=40 / intra_refresh=0 / rc_lookahead=40 / rc=abr / mbtree=1 / bitrate=1014 / ratetol=1.0 / qcomp=0.60 / qpmin=0 / qpmax=69 / qpstep=4 / ip_ratio=1.40 / aq=1:1.00
Default : Yes
Forced : No
Audio #1
ID : 2
Format : AAC
Format/Info : Advanced Audio Codec
Format profile : LC
Codec ID : A_AAC
Duration : 2h 18mn
Bit rate : 128 Kbps
Channel(s) : 6 channels
Channel positions : Front: L C R, Side: L R, LFE
Sampling rate : 48.0 KHz
Frame rate : 46.875 fps (1024 spf)
Compression mode : Lossy
Delay relative to video : 10ms
Stream size : 127 MiB (9%)
Default : Yes
Forced : No
Audio #2
ID : 3
Format : MPEG Audio
Format version : Version 1
Format profile : Layer 3
Mode : Joint stereo
Mode extension : MS Stereo
Codec ID : A_MPEG/L3
Codec ID/Hint : MP3
Duration : 2h 18mn
Bit rate mode : Constant
Bit rate : 192 Kbps
Channel(s) : 2 channels
Sampling rate : 44.1 KHz
Frame rate : 38.281 fps (1152 spf)
Compression mode : Lossy
Stream size : 190 MiB (14%)
Title : O'zbek tilida (DUB) AxeL
Writing library : LAME3.97
Language : Uzbek
Default : No
Forced : No
LAVHALAR

Aqlbovar qilmas Halk / Невероятный Халк / The Incredible Hulk

Aqlbovar qilmas Halk / Невероятный Халк / The Incredible Hulk- Chiqqan yili: 2008
Davlat: AQSh
Janr: fantastika, jangari, fentezi
Davomiyligi: 01:52:21-Tarjima: Professional (Ko'p ovozli kadr ortidan) YoshlarTV-Rejissyor: Lui Leterye-Rollarda: Edvard Norton, Liv Tayler, Tim Bleyk Nelson, Uilyam Xert, Kristina Kabot,...-Tavsif: G'ayrioddiy yashil mahluq Bryus Halkning ikkinchi qismi. Filmda ikkinchi mahluq paydo bo'ladi. Uni yengish uchun esa Halkda foydalanishadi. Voqealar rivojini bizda tomosha qiling...-Videoning sifati: HDRip
Video format: MKV
Video: MPEG4 Video (H264) 720x304 23.976fps 1 014 Kbps
Audio #1: AAC 48000Hz 6ch 128 Kbps Rus tilida
Audio #2: MP3 44100Hz stereo 96kbps YoshlarTV, O'zbek tilida

Media Info

General
Unique ID : 80146808245489757889092724661232322497 (0x3C4BB6BB3FF24466178974D2B90FC7C1)
Complete name : D:\Films\Tarjima\Halk.Dilogy.AxeL\Halk.2.HDRip.AxeL.mkv
Format : Matroska
Format version : Version 4 / Version 2
File size : 994 MiB
Duration : 1h 52mn
Overall bit rate : 1 237 Kbps
Encoded date : UTC 2018-08-22 19:22:19
Writing application : mkvmerge v22.0.0 ('At The End Of The World') 64-bit
Writing library : libebml v1.3.5 + libmatroska v1.4.8
Video
ID : 1
Format : AVC
Format/Info : Advanced Video Codec
Format profile : High@L3
Format settings, CABAC : Yes
Format settings, ReFrames : 4 frames
Codec ID : V_MPEG4/ISO/AVC
Duration : 1h 52mn
Bit rate : 1 014 Kbps
Width : 720 pixels
Height : 304 pixels
Display aspect ratio : 2.35:1
Frame rate mode : Constant
Frame rate : 23.976 (24000/1001) fps
Color space : YUV
Chroma subsampling : 4:2:0
Bit depth : 8 bits
Scan type : Progressive
Bits/(Pixel*Frame) : 0.193
Stream size : 812 MiB (82%)
Writing library : x264 core 146 r109 121396c
Encoding settings : cabac=1 / ref=3 / deblock=1:0:0 / analyse=0x3:0x113 / me=hex / subme=7 / psy=1 / psy_rd=1.00:0.00 / mixed_ref=1 / me_range=16 / chroma_me=1 / trellis=1 / 8x8dct=1 / cqm=0 / deadzone=21,11 / fast_pskip=1 / chroma_qp_offset=-2 / threads=12 / lookahead_threads=2 / sliced_threads=0 / nr=0 / decimate=1 / interlaced=0 / bluray_compat=0 / constrained_intra=0 / bframes=3 / b_pyramid=2 / b_adapt=1 / b_bias=0 / direct=1 / weightb=1 / open_gop=0 / weightp=2 / keyint=250 / keyint_min=23 / scenecut=40 / intra_refresh=0 / rc_lookahead=40 / rc=abr / mbtree=1 / bitrate=1014 / ratetol=1.0 / qcomp=0.60 / qpmin=0 / qpmax=69 / qpstep=4 / ip_ratio=1.40 / aq=1:1.00
Default : Yes
Forced : No
Audio #1
ID : 2
Format : AAC
Format/Info : Advanced Audio Codec
Format profile : LC
Codec ID : A_AAC
Duration : 1h 52mn
Bit rate : 128 Kbps
Channel(s) : 6 channels
Channel positions : Front: L C R, Side: L R, LFE
Sampling rate : 48.0 KHz
Frame rate : 46.875 fps (1024 spf)
Compression mode : Lossy
Delay relative to video : -21ms
Stream size : 103 MiB (10%)
Default : Yes
Forced : No
Audio #2
ID : 3
Format : MPEG Audio
Format version : Version 1
Format profile : Layer 3
Mode : Joint stereo
Mode extension : MS Stereo
Codec ID : A_MPEG/L3
Codec ID/Hint : MP3
Duration : 1h 52mn
Bit rate mode : Constant
Bit rate : 96.0 Kbps
Channel(s) : 2 channels
Sampling rate : 44.1 KHz
Frame rate : 38.281 fps (1152 spf)
Compression mode : Lossy
Delay relative to video : -21ms
Stream size : 77.1 MiB (8%)
Title : O'zbek tilida (DUB) AxeL
Writing library : LAME3.99.5
Language : Uzbek
Default : No
Forced : No
LAVHALAR
.torrent yuklash

Yuqori tezlikda va bepul ko‘chirish!

Qanday yuklab olinadi? · Torrent nima o‘zi? · Reyting va cheklovlar



So‘ngi marta tahrirlandi: AxeL (2018-08-24 12:08), Jami tahrirlangan 1 marta
Profil ShX

AxeL ®

Jins:
Yigit
Staj:
1 yil 4 oy
Xabarlar:
743

Qayerdan: Gronland, Norway

Taqiq:

Moderlar ikkinchi spoilerda sh tegini hato qo'yib yubordim topolmayabman, yordam bervoringlar

MRLGdan izoh


Bo'ldi to'g'rilandi. size tegi yopilmay qolib ketgan.

Mavzu yaratish 23-Avg-2018 19:13 (1 daqiqa o‘tgach)

Iqitibos

Profil ShX

Unofficial

Jins:
Yigit
Staj:
1 yil 3 oy
Xabarlar:
449

Qayerdan: Nukus

Taqiq:

5821Moderlar ikkinchi spoilerda sh tegini hato qo'yib yubordim topolmayabman, yordam bervoringlar
kodlarni jo'nating SH/X ga

Mavzu yaratish 23-Avg-2018 19:22 (8 daqiqa o‘tgach)

Iqitibos

Profil ShX

N.U.R.I.K.B.E.K

Jins:
Yigit
Staj:
1 yil 8 oy
Xabarlar:
494

Qayerdan: Jizzax. Paxtakor

Taqiq:

Qtranslater yaxshi tarjima qivoti

Mavzu yaratish 23-Avg-2018 19:27 (5 daqiqa o‘tgach)

Iqitibos

Profil ShX

AxeL ®

Jins:
Yigit
Staj:
1 yil 4 oy
Xabarlar:
743

Qayerdan: Gronland, Norway

Taqiq:

MRLG rahmat, Unofficial MRLG janoblari tog'rilabdilar, sizga ham rahmat

Mavzu yaratish 23-Avg-2018 20:06 (38 daqiqa o‘tgach)

Iqitibos

Profil ShX

MRLG

Jins:
Yigit
Staj:
1 yil 11 oy
Xabarlar:
609
Taqiq:

AxeL, Tavsifni tarjima qiling. Maqomini o'zgartiraman yoki shu holatida Vaqtincha bo'limga o'tkazib qo'yaman.

Mavzu yaratish 24-Avg-2018 08:57 (12 soat o‘tgach)

Iqitibos

Profil ShX

AxeL ®

Jins:
Yigit
Staj:
1 yil 4 oy
Xabarlar:
743

Qayerdan: Gronland, Norway

Taqiq:

5863AxeL, Tavsifni tarjima qiling. Maqomini o'zgartiraman yoki shu holatida Vaqtincha bo'limga o'tkazib qo'yaman.
Vneshkaga mb qolmadi, tog'ri tushunasiz degan umiddaman

Mavzu yaratish 24-Avg-2018 12:00 (3 soat o‘tgach)

Iqitibos

Profil ShX
Xabarlarni ko‘rsatish:    

Hozirgi vaqt: 23-Iyul 03:34

Vaqtlar farqi: UTC + 5



Siz mavzu yaratishingiz mumkin emas
Siz xabarlarga javob qaytarishingiz mumkin emas
Siz o‘z xabarlaringizni tahrirlashingiz mumkin emas
Siz o‘z xabarlaringizni o‘chirishingiz mumkin emas
Siz so‘rovlarda ovoz berishingiz mumkin emas
Siz xabalarga fayllarni biriktirishingiz mumkin emas
Siz fayllarni ko‘chirishingiz mumkin emas