˂
˃
Tarqatmalar statistikasi
Yoʻq
 
     
 
 

AxeL ®

Jins:
Yigit
Staj:
1 yil 4 oy
Xabarlar:
743

Qayerdan: Gronland, Norway

Taqiq:

-Tebranish / Гравитация / Gravity-
Chiqqan yili: 2013
Davlat: AQSh
Janr: fantastika, triller, drama
Davomiyligi: 01:30:58-Tarjima:
    Ko'p kishilik kadr ortidan - [MVO] - RUS
    Ko'p kishilik kadr ortidan - [MVO] - ENG
    Ko'p kishilik kadr ortidan [Yoshlar] - UZB
Subtitr: rus, eng-Rejissyor: Alfonso Kuaron-Ssenariy: Alfonso Kuaron, Jonas Kuaron
Prodyuser: Alfonso Kuaron, David Heyman
Kompozitor: Stiven Prays
Operator: Emmanuel Lubetzk-Rollarda: Sandra Ballok, Jorj Kluni, Ed Xarris, Orto Ignatiussen, Faldut Sharma, Emi Uorren, Bsher Savaj, Jenis Axern,...-Tavsif: Doktor Rayan Stoun, haqiqiy meditsina sohasi mutahassisi, kosmosga birinchi parvozi missiyasini uyushtiradi. Uni oldinda hatarli sarguzashtlar kutmoqda. Voqealar rivojini bizda ko'ring, ajoyib film....-Sifat: BDRip-AVC
Format: MKV
Video: MPEG4 Video (H264) 1080x450 23.976fps 2 530 Kbps
Audio №1: Dolby AC3 48000Hz 6ch 448kbps Rus tilida
Audio №2: Dolby AC3 48000Hz 6ch 448kbps Ingliz tilida
Audio №3: MP3 44100Hz stereo 224kbps O'zbek tilida-

Media Info

General
Unique ID : 33933777438103725878563581005558808339 (0x1987686632C0C00861F43FC6D1957F13)
Format : Matroska
Format version : Version 4 / Version 2
File size : 2.32 GiB
Duration : 1h 30mn
Overall bit rate : 3 651 Kbps
Movie name : Gravity 2013 (New-Team) (Rip by Stalker oK)
Encoded date : UTC 2018-08-17 13:58:07
Writing application : mkvmerge v22.0.0 ('At The End Of The World') 64-bit
Writing library : libebml v1.3.5 + libmatroska v1.4.8
DURATION : 01:30:58.521000000
NUMBER_OF_FRAMES : 208959
NUMBER_OF_BYTES : 152838582
_STATISTICS_WRITING_APP : mkvmerge v22.0.0 ('At The End Of The World') 64-bit
_STATISTICS_WRITING_DATE_UTC : 2018-08-17 13:58:07
_STATISTICS_TAGS : BPS DURATION NUMBER_OF_FRAMES NUMBER_OF_BYTES
Video
ID : 1
Format : AVC
Format/Info : Advanced Video Codec
Format profile : High@L4.1
Format settings, CABAC : Yes
Format settings, ReFrames : 10 frames
Codec ID : V_MPEG4/ISO/AVC
Duration : 1h 30mn
Bit rate : 2 530 Kbps
Width : 1 080 pixels
Height : 450 pixels
Display aspect ratio : 2.40:1
Frame rate mode : Constant
Frame rate : 23.976 fps
Color space : YUV
Chroma subsampling : 4:2:0
Bit depth : 8 bits
Scan type : Progressive
Bits/(Pixel*Frame) : 0.217
Stream size : 1.56 GiB (67%)
Writing library : x264 core 138 r2358 9e941d1
Encoding settings : cabac=1 / ref=10 / deblock=1:-3:-2 / analyse=0x3:0x133 / me=umh / subme=11 / psy=1 / psy_rd=1.01:0.06 / mixed_ref=1 / me_range=48 / chroma_me=1 / trellis=2 / 8x8dct=1 / cqm=0 / deadzone=21,11 / fast_pskip=0 / chroma_qp_offset=-3 / threads=6 / lookahead_threads=1 / sliced_threads=0 / nr=0 / decimate=0 / interlaced=0 / bluray_compat=0 / constrained_intra=0 / bframes=11 / b_pyramid=2 / b_adapt=2 / b_bias=0 / direct=3 / weightb=1 / open_gop=0 / weightp=2 / keyint=240 / keyint_min=23 / scenecut=40 / intra_refresh=0 / rc_lookahead=80 / rc=2pass / mbtree=1 / bitrate=2530 / ratetol=1.0 / qcomp=0.65 / qpmin=0 / qpmax=69 / qpstep=4 / cplxblur=20.0 / qblur=0.5 / vbv_maxrate=35000 / vbv_bufsize=40000 / nal_hrd=none / ip_ratio=1.40 / aq=2:0.80
Default : Yes
Forced : No
DURATION : 01:30:58.495000000
NUMBER_OF_FRAMES : 130873
NUMBER_OF_BYTES : 1725065675
_STATISTICS_WRITING_APP : mkvmerge v22.0.0 ('At The End Of The World') 64-bit
_STATISTICS_WRITING_DATE_UTC : 2018-08-17 13:58:07
_STATISTICS_TAGS : BPS DURATION NUMBER_OF_FRAMES NUMBER_OF_BYTES
Audio #1
ID : 2
Format : AC-3
Format/Info : Audio Coding 3
Mode extension : CM (complete main)
Format settings, Endianness : Big
Codec ID : A_AC3
Duration : 1h 30mn
Bit rate mode : Constant
Bit rate : 448 Kbps
Channel(s) : 6 channels
Channel positions : Front: L C R, Side: L R, LFE
Sampling rate : 48.0 KHz
Compression mode : Lossy
Stream size : 292 MiB (12%)
Title : AC3 5.1 @ 448 kbps - Dub
Language : Russian
Default : Yes
Forced : No
Audio #2
ID : 3
Format : AC-3
Format/Info : Audio Coding 3
Mode extension : CM (complete main)
Format settings, Endianness : Big
Codec ID : A_AC3
Duration : 1h 30mn
Bit rate mode : Constant
Bit rate : 448 Kbps
Channel(s) : 6 channels
Channel positions : Front: L C R, Side: L R, LFE
Sampling rate : 48.0 KHz
Compression mode : Lossy
Stream size : 292 MiB (12%)
Title : AC3 5.1 @ 448 kbps
Language : English
Default : No
Forced : No
Audio #3
ID : 8
Format : MPEG Audio
Format version : Version 1
Format profile : Layer 3
Mode : Joint stereo
Mode extension : MS Stereo
Codec ID : A_MPEG/L3
Codec ID/Hint : MP3
Duration : 1h 30mn
Bit rate mode : Constant
Bit rate : 224 Kbps
Channel(s) : 2 channels
Sampling rate : 44.1 KHz
Compression mode : Lossy
Stream size : 146 MiB (6%)
Writing library : LAME3.99.5
Language : Uzbek
Default : No
Forced : No
Text #1
ID : 4
Format : UTF-8
Codec ID : S_TEXT/UTF8
Codec ID/Info : UTF-8 Plain Text
Title : forsed
Language : Russian
Default : Yes
Forced : No
Text #2
ID : 5
Format : UTF-8
Codec ID : S_TEXT/UTF8
Codec ID/Info : UTF-8 Plain Text
Language : Russian
Default : No
Forced : No
Text #3
ID : 6
Format : UTF-8
Codec ID : S_TEXT/UTF8
Codec ID/Info : UTF-8 Plain Text
Language : English
Default : No
Forced : No
Text #4
ID : 7
Format : UTF-8
Codec ID : S_TEXT/UTF8
Codec ID/Info : UTF-8 Plain Text
Title : SDH
Language : English
Default : No
Forced : No
LAVHALAR
-
.torrent yuklash

Yuqori tezlikda va bepul ko‘chirish!

Qanday yuklab olinadi? · Torrent nima o‘zi? · Reyting va cheklovlar

Profil ShX

bekastar

Jins:
Yigit
Staj:
1 yil 1 oy
Xabarlar:
34

Qayerdan: Samarqand

Taqiq:

tezlik beringAxeL,

Mavzu yaratish 24-Avg-2018 19:39 (19 daqiqa o‘tgach)

Iqitibos

Profil ShX

AxeL ®

Jins:
Yigit
Staj:
1 yil 4 oy
Xabarlar:
743

Qayerdan: Gronland, Norway

Taqiq:

bu reliz bilan birga yana bir qancha relizlarga tezlik berilgan otdacha 60 kb/s uploader yordami kerak

Mavzu yaratish 24-Avg-2018 19:40 (1 daqiqa o‘tgach)

Iqitibos

Profil ShX

Striker

Jins:
Yigit
Staj:
1 yil 11 oy
Xabarlar:
54
Taqiq:

5870bu reliz bilan birga yana bir qancha relizlarga tezlik berilgan otdacha 60 kb/s uploader yordami kerak
IP ni bering

Mavzu yaratish 24-Avg-2018 20:59 (1 soat 18 daqiqa o‘tgach)

Iqitibos

Profil ShX

vuelta

Jins:
Yigit
Staj:
1 yil 11 oy
Xabarlar:
300
Taqiq:

bu kinoni kurgandim yaxshi kino bu

Mavzu yaratish 24-Avg-2018 21:03 (4 daqiqa o‘tgach)

Iqitibos

Profil ShX

AxeL ®

Jins:
Yigit
Staj:
1 yil 4 oy
Xabarlar:
743

Qayerdan: Gronland, Norway

Taqiq:

5871IP ni bering
10.9.106.60:22547

Mavzu yaratish 24-Avg-2018 21:05 (2 daqiqa o‘tgach)

Iqitibos

Profil ShX

AxeL ®

Jins:
Yigit
Staj:
1 yil 4 oy
Xabarlar:
743

Qayerdan: Gronland, Norway

Taqiq:

5872bu kinoni kurgandim yaxshi kino bu
tog'ri aytasiz, yahshi kino odamda qanaqadir vahima uyg'otadi, huddi o'shatta yurgandek his qilasiz o'zizni

Mavzu yaratish 24-Avg-2018 21:07 (1 daqiqa o‘tgach)

Iqitibos

Profil ShX
Xabarlarni ko‘rsatish:    

Hozirgi vaqt: 23-Iyul 03:42

Vaqtlar farqi: UTC + 5



Siz mavzu yaratishingiz mumkin emas
Siz xabarlarga javob qaytarishingiz mumkin emas
Siz o‘z xabarlaringizni tahrirlashingiz mumkin emas
Siz o‘z xabarlaringizni o‘chirishingiz mumkin emas
Siz so‘rovlarda ovoz berishingiz mumkin emas
Siz xabalarga fayllarni biriktirishingiz mumkin emas
Siz fayllarni ko‘chirishingiz mumkin emas