˂
˃
Tarqatmalar statistikasi
Ko‘chiraman: [ 2 ]
 
     
 
 

AxeL ®

Jins:
Yigit
Staj:
1 yil 4 oy
Xabarlar:
743

Qayerdan: Gronland, Norway

Taqiq:

Ming bir kecha ertagi / Арабские приключения / Arabian Nights
-Ma'lumotlar:
    Chiqqan yili: 2000
    Davlat: AQSh
    Janr: sarguzasht, oilaviy, fantaziya
    Davomiyligi: 02:58:03
    Tarjima: Professional (Ko'p ovozli kadr ortidan) O'zbek tilida
-Film ijodkorlari:
    Rejissyor: Stiv Berron
    Prodyuser: Naigel Vull, Hovard Ellis, Robert Xolms, Dayson Lovell, Robert Xolmi, Piter Barns
    Rollarda: Jon Leguizamo, Vanessa Mey, Dyugrey Skott, Rufus Syuel, Jim Karter, Piter Ginees, Xyu Kuarshi, Pik senLim, Amira Kasar, Endi Serkis,...
-Film haqida:
    O'sha mashhur asar kinosi. Kino bizga shox sultonning ketma ket xotinlarini o'ldirishi haqida hikoya qiladi. So'ngi xotini esa qandaydir ertak bilan o'z umrini xavfdan saqlab qoladi. Voqealar rivojini bizda kuzating...
-Film reytingi:
    Кинопоиск: 7.8 (2K odam)
    IMDb: 7.5 (5K odam)
-Texnik ma'lumotlar:
    Videoning sifati: DVDRip
    Video format: MP4
    Video: MPEG4 Video (H264) 640x360 29.97fps 755kbps
    Audio: AAC 48000Hz stereo 127kbps O'zbek tilida

Media Info

General
Complete name : D:\Films\Tarjima\1001.kecha.ertaklari.DVDRip.2000.mp4
Format : MPEG-4
Format profile : Base Media / Version 2
Codec ID : mp42 (mp42)
File size : 1.11 GiB
Duration : 2h 58mn
Overall bit rate : 890 Kbps
Codirector : codirector
Production studio : studio
ContentType : Unknown Type
Encoded date : UTC 2017-09-03 08:54:06
Tagged date : UTC 2017-09-03 08:54:06
Video
ID : 1
Format : AVC
Format/Info : Advanced Video Codec
Format profile : Main@L4.1
Format settings, CABAC : Yes
Format settings, ReFrames : 2 frames
Format settings, GOP : M=3, N=30
Muxing mode : Container profile=Baseline@3.0
Codec ID : avc1
Codec ID/Info : Advanced Video Coding
Duration : 2h 58mn
Bit rate : 756 Kbps
Width : 640 pixels
Height : 360 pixels
Display aspect ratio : 16:9
Frame rate mode : Constant
Frame rate : 29.970 (30000/1001) fps
Color space : YUV
Chroma subsampling : 4:2:0
Bit depth : 8 bits
Scan type : Progressive
Bits/(Pixel*Frame) : 0.109
Stream size : 962 MiB (85%)
Language : English
Audio
ID : 2
Format : AAC
Format/Info : Advanced Audio Codec
Format profile : LC
Codec ID : 40
Duration : 2h 58mn
Bit rate mode : Constant
Bit rate : 128 Kbps
Channel(s) : 2 channels
Channel positions : Front: L R
Sampling rate : 48.0 KHz
Frame rate : 46.875 fps (1024 spf)
Compression mode : Lossy
Stream size : 163 MiB (14%)
Title : Stereo
Language : English
Default : Yes
Alternate group : 1

Lavhalar

.torrent yuklash

Yuqori tezlikda va bepul ko‘chirish!

Qanday yuklab olinadi? · Torrent nima o‘zi? · Reyting va cheklovlar

Profil ShX

AxeL ®

Jins:
Yigit
Staj:
1 yil 4 oy
Xabarlar:
743

Qayerdan: Gronland, Norway

Taqiq:

Tog'ri kino sifatsiz, lekin antikvar kinolardan hisoblanadi

Mavzu yaratish 29-Avg-2018 21:27 (2 daqiqa o‘tgach)

Iqitibos

Profil ShX

Unofficial

Jins:
Yigit
Staj:
1 yil 3 oy
Xabarlar:
449

Qayerdan: Nukus

Taqiq:

5966Tog'ri kino sifatsiz, lekin antikvar kinolardan hisoblanadi
menimcha bu filmni vaqtinchalik tarqatmalar bo'limiga o'tqazib qo'yishsa kerak, chunki videoda logotip bor ekan, o'ng burchak pastida

Mavzu yaratish 29-Avg-2018 22:16 (48 daqiqa o‘tgach)

Iqitibos

Profil ShX

Rico_Bek

Jins:
Yigit
Staj:
1 yil 9 oy
Xabarlar:
136

Qayerdan: Andijon

Taqiq:

Ming bir kecha ertagi / Арабские приключения / Arabian Nights (Stiv Berron) [2000, sarguzasht, oilaviy, fantaziya, DVDRip]
2000 yillar uchun bu kinoni sifatsiz deb bo'lmaydi.

Mavzu yaratish 30-Avg-2018 18:12 (19 soat o‘tgach)

Iqitibos

Profil ShX

AxeL ®

Jins:
Yigit
Staj:
1 yil 4 oy
Xabarlar:
743

Qayerdan: Gronland, Norway

Taqiq:

59742000 yillar uchun bu kinoni sifatsiz deb bo'lmaydi.
Assalom aleykum, tog'ri aytasiz, runetni qidirib ko'rdim, eng sifatlisi DVDRip ekan, tog'ri buyam DVDRip faqat convert qilingan versiyasida bu

Mavzu yaratish 30-Avg-2018 19:14 (1 soat 2 daqiqa o‘tgach)

Iqitibos

Profil ShX
Xabarlarni ko‘rsatish:    

Hozirgi vaqt: 23-Iyul 04:02

Vaqtlar farqi: UTC + 5



Siz mavzu yaratishingiz mumkin emas
Siz xabarlarga javob qaytarishingiz mumkin emas
Siz o‘z xabarlaringizni tahrirlashingiz mumkin emas
Siz o‘z xabarlaringizni o‘chirishingiz mumkin emas
Siz so‘rovlarda ovoz berishingiz mumkin emas
Siz xabalarga fayllarni biriktirishingiz mumkin emas
Siz fayllarni ko‘chirishingiz mumkin emas