˂
˃
Tarqatmalar statistikasi
Yoʻq
 
     
 
 

AxeL ®

Jins:
Yigit
Staj:
1 yil 4 oy
Xabarlar:
743

Qayerdan: Gronland, Norway

Taqiq:

-Men, Robotman / Я, робот / I, Robot- Ma'lumotlar:
    Chiqqan yili: 2004
    Davlat: AQSh
    Janr: fantastika, jangari, triller
    Davomiyligi: 01:54:45
    Tarjima: Professional (kadr ortidan, ko'p ovozli) O'zbek tilida
-Film ijodkorlari:
    Rejissyor: Alex Proyas
    Prodyuser: Michael Lee Baron, John Davis, Topher Dow, Wyck Godfrey
    Operator: Simon Duggan
    Ssenariy: Jeff Vintar, Akiva Goldsman, Isaac Asimov
    Rollarda: Will Smith, Bridget Moynahan, Alan Tudyk, James Cromwell, Bruce Greenwood, Chi McBride, Shia LaBeouf, Adrian Ricard, Jerry Wasserman, Fiona Hogan, ...
-Film haqida:
    Film 2035 yillar amalga oshirilgan, robotlar oddiy inson yordamchilari. Bosh qahramoni - robotlarni "hazm qilmaydigan" politsiyachi, robotning ishtirok etayotgan qotillik ishini tekshiradi.
    Bu "Robotlar qonuni" (robot hech qachon insonga qo'l ko'tarmasligi) mumkin bo'lgan buzilishi bo'lib, u asosan mumkin emas. Vaziyat falokatga yaqin: avtoulovlar bu qonunni buzishi mumkin bo'lsa, unda hech kim ularni nazorat qilishni to'xtatib qo'ymaydi, ayniqsa insoniyat uzoq vaqtdan beri robotlarga qaram bo'lib qoldi ...
-Film reytingi:
-Texnik ma'lumotlar:
    Videoning sifati: HDRip-AVC
    Video format: mkv
    Video: MPEG4 Video (H264) 1024x576 23.976fps 1 014 Kbps
    Audio: AC 48000Hz 6ch 128 kbps Rus tilida
    Audio: MP3 48000Hz stereo 128kbps O'zbek tiida

    Media Info

    General
    Unique ID : 89074159640937505097637339658680172837 (0x43030F234C64DC7236D05A69946A8125)
    Complete name : D:\Films\Tarjima\HD Video\Men, Robotman.HDRip.AVC.AxeL.mkv
    Format : Matroska
    Format version : Version 4 / Version 2
    File size : 1.02 GiB
    Duration : 1h 54mn
    Overall bit rate : 1 267 Kbps
    Encoded date : UTC 2018-08-25 16:33:40
    Writing application : mkvmerge v22.0.0 ('At The End Of The World') 64-bit
    Writing library : libebml v1.3.5 + libmatroska v1.4.8
    Video
    ID : 1
    Format : AVC
    Format/Info : Advanced Video Codec
    Format profile : High@L3.1
    Format settings, CABAC : Yes
    Format settings, ReFrames : 4 frames
    Codec ID : V_MPEG4/ISO/AVC
    Duration : 1h 54mn
    Bit rate : 1 014 Kbps
    Width : 1 024 pixels
    Height : 576 pixels
    Display aspect ratio : 16:9
    Frame rate mode : Constant
    Frame rate : 23.976 (24000/1001) fps
    Color space : YUV
    Chroma subsampling : 4:2:0
    Bit depth : 8 bits
    Scan type : Progressive
    Bits/(Pixel*Frame) : 0.072
    Stream size : 827 MiB (80%)
    Writing library : x264 core 146 r109 121396c
    Encoding settings : cabac=1 / ref=3 / deblock=1:0:0 / analyse=0x3:0x113 / me=hex / subme=7 / psy=1 / psy_rd=1.00:0.00 / mixed_ref=1 / me_range=16 / chroma_me=1 / trellis=1 / 8x8dct=1 / cqm=0 / deadzone=21,11 / fast_pskip=1 / chroma_qp_offset=-2 / threads=12 / lookahead_threads=2 / sliced_threads=0 / nr=0 / decimate=1 / interlaced=0 / bluray_compat=0 / constrained_intra=0 / bframes=3 / b_pyramid=2 / b_adapt=1 / b_bias=0 / direct=1 / weightb=1 / open_gop=0 / weightp=2 / keyint=250 / keyint_min=23 / scenecut=40 / intra_refresh=0 / rc_lookahead=40 / rc=abr / mbtree=1 / bitrate=1014 / ratetol=1.0 / qcomp=0.60 / qpmin=0 / qpmax=69 / qpstep=4 / ip_ratio=1.40 / aq=1:1.00
    Language : English
    Default : Yes
    Forced : No
    Audio #1
    ID : 2
    Format : AAC
    Format/Info : Advanced Audio Codec
    Format profile : LC
    Codec ID : A_AAC
    Duration : 1h 54mn
    Bit rate : 128 Kbps
    Channel(s) : 6 channels
    Channel positions : Front: L C R, Side: L R, LFE
    Sampling rate : 48.0 KHz
    Frame rate : 46.875 fps (1024 spf)
    Compression mode : Lossy
    Delay relative to video : -21ms
    Stream size : 105 MiB (10%)
    Language : Russian
    Default : Yes
    Forced : No
    Audio #2
    ID : 3
    Format : MPEG Audio
    Format version : Version 1
    Format profile : Layer 3
    Mode : Joint stereo
    Mode extension : MS Stereo
    Codec ID : A_MPEG/L3
    Codec ID/Hint : MP3
    Duration : 1h 54mn
    Bit rate mode : Constant
    Bit rate : 128 Kbps
    Channel(s) : 2 channels
    Sampling rate : 48.0 KHz
    Frame rate : 41.667 fps (1152 spf)
    Compression mode : Lossy
    Delay relative to video : -21ms
    Stream size : 105 MiB (10%)
    Title : O'zbek tilida (DUB) AxeL
    Writing library : LAME3.99.5
    Language : Uzbek
    Default : No
    Forced : No
    Menu
    00:00:00.000 : en:00:00:00.000
    00:01:46.940 : en:00:01:46.940
    00:03:30.252 : en:00:03:30.252
    00:06:18.545 : en:00:06:18.545
    00:07:57.519 : en:00:07:57.519
    00:10:19.702 : en:00:10:19.702
    00:12:11.230 : en:00:12:11.230
    00:15:35.309 : en:00:15:35.309
    00:17:47.984 : en:00:17:47.984
    00:22:51.870 : en:00:22:51.870
    00:26:14.031 : en:00:26:14.031
    00:26:59.243 : en:00:26:59.243
    00:33:23.168 : en:00:33:23.168
    00:36:03.578 : en:00:36:03.578
    00:41:23.523 : en:00:41:23.523
    00:46:07.890 : en:00:46:07.890
    00:49:06.026 : en:00:49:06.026
    00:52:14.506 : en:00:52:14.506
    00:55:22.277 : en:00:55:22.277
    00:58:31.717 : en:00:58:31.717
    01:00:06.770 : en:01:00:06.770
    01:01:08.665 : en:01:01:08.665
    01:07:56.114 : en:01:07:56.114
    01:08:18.094 : en:01:08:18.094
    01:10:24.303 : en:01:10:24.303
    01:13:17.226 : en:01:13:17.226
    01:16:53.818 : en:01:16:53.818
    01:18:39.465 : en:01:18:39.465
    01:20:14.226 : en:01:20:14.226
    01:21:18.290 : en:01:21:18.290
    01:21:57.454 : en:01:21:57.454
    01:27:29.536 : en:01:27:29.536
    01:28:57.666 : en:01:28:57.666
    01:32:59.657 : en:01:32:59.657
    01:34:45.138 : en:01:34:45.138
    01:38:09.467 : en:01:38:09.467
    01:41:10.898 : en:01:41:10.898
    01:44:15.416 : en:01:44:15.416
    01:45:02.755 : en:01:45:02.755
    Lavhalar
    .torrent yuklash

    Yuqori tezlikda va bepul ko‘chirish!

    Qanday yuklab olinadi? · Torrent nima o‘zi? · Reyting va cheklovlar

Profil ShX

N.U.R.I.K.B.E.K

Jins:
Yigit
Staj:
1 yil 8 oy
Xabarlar:
494

Qayerdan: Jizzax. Paxtakor

Taqiq:

MRLG yuberdagi aktyor isimlariga ko'z yumdizmi istisno qilib

Mavzu yaratish 11-Sen-2018 17:42 (7 kun o‘tgach)

Iqitibos

Profil ShX
Xabarlarni ko‘rsatish:    

Hozirgi vaqt: 23-Iyul 04:13

Vaqtlar farqi: UTC + 5



Siz mavzu yaratishingiz mumkin emas
Siz xabarlarga javob qaytarishingiz mumkin emas
Siz o‘z xabarlaringizni tahrirlashingiz mumkin emas
Siz o‘z xabarlaringizni o‘chirishingiz mumkin emas
Siz so‘rovlarda ovoz berishingiz mumkin emas
Siz xabalarga fayllarni biriktirishingiz mumkin emas
Siz fayllarni ko‘chirishingiz mumkin emas