˂
˃
Tarqatmalar statistikasi
Ko‘chiraman: [ 1 ]
Ko‘chirib bo‘ldim: [ 6 ]
 
     
 
 

yunusovjamshid ®

Jins:
Yigit
Staj:
8 oy 15 kun
Xabarlar:
32

Qayerdan: Toshkent

Taqiq:

--Oushenning 8 Dugonasi | 8 подруг Оушена | Ocean's Eight
-- Chiqqan yili: 2018
Davlat:
Janr: Jangari, Triller, Jinoyat, Komediya
Davomiyligi: 01:50:10
Tarjima: Professional (dublyaj qilingan) (O'zbek tilida)--Rejissyor: Gery Ross | Гэри Росс | Gary Ross--Rollarda: Keyt Blanshet, Sandra Ballok, Enn Xeteuey, Riyanna, Oviviya Men, Mett Deymon, Dakota Fanning, Richard Armitedj, Sara Polson, Xelena Bonem Karter, Keti Xolms--Tavsif: U o'zi uchun nima kerakligini aniq biladi - o'z ishining eng yaxshilari jamoasi, uning uzoq muddatli sherigi Lou Miller bilan boshlanadi. Ular birgalikda noyob mutaxassislardan iborat jamoani yig'adilar. Ularning maqsadi - 150 mln. dollarlik olmoslar jahonga taniqli aktrisa Daphne Klugerning bo'yinbog'ida, bu yilgi asosiy tadbirda hamma e'tiborini o'ziga tortadigan - metropoliten muzeyida.
Rejaning o'ziga xosligi shubhasizdir, lekin ular qo'llarida marvaridlar bilan chiqish va chiqib ketishni xohlasalar, bajarilishi mukammal bo'lishi kerak. Har kimning fikrida.-- Videoning sifati: WEB-DL 1080p
Video format:
Video: 1920x800, 23.976 fps, 2 150 kbps
Audio 1: 44100Hz, AC3, 2 ch, 160 kbps |
Audio 2: 44100Hz, AAC, 2 ch, 96.0 kbps | iTunes
Audio 3: 48000Hz, AAC, 2 ch, 136 kbps |

Media Info

General
Unique ID : 226840247844454283062531237985722245773 (0xAAA7D7B415084F3B8BEB978DF143228D)
Complete name : D:\проче\кино\8 подруг Оушена.(2018).BluRay.1080p.Uz.Rus.Eng.x264.mkv
Format : Matroska
Format version : Version 4 / Version 2
File size : 1.96 GiB
Duration : 1 h 50 min
Overall bit rate : 2 544 kb/s
Encoded date : UTC 2018-12-07 06:33:55
Writing application : mkvmerge v8.8.0 ('Wind at my back') 64bit
Writing library : libebml v1.3.3 + libmatroska v1.4.4
Video
ID : 1
Format : AVC
Format/Info : Advanced Video Codec
Format profile : High@L4.1
Format settings, CABAC : Yes
Format settings, ReFrames : 4 frames
Codec ID : V_MPEG4/ISO/AVC
Duration : 1 h 50 min
Bit rate : 2 150 kb/s
Width : 1 920 pixels
Height : 800 pixels
Display aspect ratio : 2.40:1
Frame rate mode : Constant
Frame rate : 23.976 FPS
Color space : YUV
Chroma subsampling : 4:2:0
Bit depth : 8 bits
Scan type : Progressive
Bits/(Pixel*Frame) : 0.058
Stream size : 1.65 GiB (84%)
Writing library : x264 core 155
Encoding settings : cabac=1 / ref=4 / deblock=1:-1:-1 / analyse=0x3:0x133 / me=umh / subme=9 / psy=1 / psy_rd=1.00:0.15 / mixed_ref=1 / me_range=24 / chroma_me=1 / trellis=2 / 8x8dct=1 / cqm=0 / deadzone=21,11 / fast_pskip=0 / chroma_qp_offset=-3 / threads=18 / lookahead_threads=1 / sliced_threads=0 / nr=0 / decimate=1 / interlaced=0 / bluray_compat=0 / constrained_intra=0 / bframes=3 / b_pyramid=2 / b_adapt=2 / b_bias=0 / direct=3 / weightb=1 / open_gop=0 / weightp=2 / keyint=250 / keyint_min=23 / scenecut=40 / intra_refresh=0 / rc_lookahead=60 / rc=2pass / mbtree=1 / bitrate=2150 / ratetol=1.0 / qcomp=0.60 / qpmin=0 / qpmax=69 / qpstep=4 / cplxblur=20.0 / qblur=0.5 / vbv_maxrate=31250 / vbv_bufsize=31250 / nal_hrd=none / filler=0 / ip_ratio=1.40 / aq=1:1.00
Default : Yes
Forced : No
Audio #1
ID : 2
Format : AC-3
Format/Info : Audio Coding 3
Format settings, Endianness : Big
Codec ID : A_AC3
Duration : 1 h 50 min
Bit rate mode : Constant
Bit rate : 160 kb/s
Channel(s) : 2 channels
Channel positions : Front: L R
Sampling rate : 44.1 kHz
Frame rate : 28.711 FPS (1536 spf)
Bit depth : 16 bits
Compression mode : Lossy
Delay relative to video : -43 ms
Stream size : 126 MiB (6%)
Title : dublyaj
Language : Uzbek
Service kind : Complete Main
Default : Yes
Forced : Yes
Audio #2
ID : 3
Format : AAC
Format/Info : Advanced Audio Codec
Format profile : LC
Codec ID : A_AAC
Duration : 1 h 50 min
Bit rate : 96.0 kb/s
Channel(s) : 2 channels
Channel positions : Front: L R
Sampling rate : 44.1 kHz
Frame rate : 43.066 FPS (1024 spf)
Compression mode : Lossy
Delay relative to video : -43 ms
Stream size : 75.5 MiB (4%)
Title : iTunes
Language : Russian
Default : No
Forced : No
Audio #3
ID : 4
Format : AAC
Format/Info : Advanced Audio Codec
Format profile : LC
Codec ID : A_AAC
Duration : 1 h 50 min
Bit rate : 136 kb/s
Channel(s) : 2 channels
Channel positions : Front: L R
Sampling rate : 48.0 kHz
Frame rate : 46.875 FPS (1024 spf)
Compression mode : Lossy
Delay relative to video : -43 ms
Stream size : 107 MiB (5%)
Title : original
Language : English
Default : No
Forced : No
.torrent yuklash

Yuqori tezlikda va bepul ko‘chirish!

Qanday yuklab olinadi? · Torrent nima o‘zi? · Reyting va cheklovlar

Profil ShX

Topik 2018 yil kinofilmlari (Premyeralar) forumidan HD, HD-AVC va yuqori sifatli Tarjima kinofilmlari ga ko‘chirildi
MRLG

Mavzu yaratish 07-Dek-2018 18:01 (6 soat o‘tgach)

Xabarlarni ko‘rsatish:    

Hozirgi vaqt: 17-Iyul 16:09

Vaqtlar farqi: UTC + 5



Siz mavzu yaratishingiz mumkin emas
Siz xabarlarga javob qaytarishingiz mumkin emas
Siz o‘z xabarlaringizni tahrirlashingiz mumkin emas
Siz o‘z xabarlaringizni o‘chirishingiz mumkin emas
Siz so‘rovlarda ovoz berishingiz mumkin emas
Siz xabalarga fayllarni biriktirishingiz mumkin emas
Siz fayllarni ko‘chirishingiz mumkin emas