˂
˃
Tarqatmalar statistikasi
Ko‘chirib bo‘ldim: [ 1 ]
 
     
 
 

L1on ®

Jins:
Yigit
Staj:
10 oy 4 kun
Xabarlar:
11
Taqiq:

Cho'qintirgan Ota II | Крёстный отец II | The Godfather
-
Chiqqan yili: 1974
Davlat: AQSH
Janr: Jangari, drama, kriminal
Davomiyligi: 03:22:06
Tarjima: Professional (dublyaj qilingan)
Rejissyor: Francis Ford Coppola
Rollarda: Al Pachino, Endi Garsiya, Dayan Kiton, Taliya Shayr, Eli Uollax, Jo Mantenya, Sofiya Koppola, Frenk D 'Ambrosino, Jorj Xemilton, Bridjit Fonda-
Tavsif: Drama markazida gangsterlarning yangi avlodi vakillari - Don Corleone va uning o'g'illari, ularning maqsadlariga erishish uchun hech qanday axloqiy to'siq yo'q. Ular patriarxal, hali Sitsiliya qonunlari asosida qurilgan mafiya, Amerikaning katta biznesiga bevosita integratsiyalashgan juda pragmatik, qattiq korporatsiyaga aylanadi...-
-
Videoning sifati: DVDRip
Video format: flv
Video: Flash Video 1 688x384 18fps 781 kbps
Audio: MP3 22050Hz stereo 7kbps

Media Info

General
Format : Flash Video
File size : 658 MiB
Duration : 3h 22mn
Overall bit rate : 455 Kbps
Writing application : Lavf53.6.0
Video
Format : Sorenson Spark
Codec ID : 2
Duration : 3h 22mn
Bit rate : 781 Kbps
Width : 688 pixels
Height : 384 pixels
Display aspect ratio : 16:9
Frame rate mode : Constant
Frame rate : 18.000 fps
Bit depth : 8 bits
Bits/(Pixel*Frame) : 0.164
Stream size : 1.10 GiB
Audio
Format : MPEG Audio
Format version : Version 2
Format profile : Layer 3
Mode : Joint stereo
Mode extension : MS Stereo
Codec ID : 2
Codec ID/Hint : MP3
Duration : 3h 22mn
Bit rate mode : Constant
Bit rate : 8 000 bps
Channel(s) : 2 channels
Sampling rate : 22.05 KHz
Compression mode : Lossy
Stream size : 11.6 MiB (2%)
Skrinshotlar
.torrent yuklash

Yuqori tezlikda va bepul ko‘chirish!

Qanday yuklab olinadi? · Torrent nima o‘zi? · Reyting va cheklovlar



So‘ngi marta tahrirlandi: L1on (2018-12-14 09:03), Jami tahrirlangan 2 marta
Profil ShX

Unofficial

Jins:
Yigit
Staj:
1 yil 1 oy
Xabarlar:
449

Qayerdan: Nukus

Taqiq:

6975Daxshat.Uz _ S
torrent fayl nomini yangilang, boshqa sayt nomi turibdi

Mavzu yaratish 13-Dek-2018 22:24 (13 daqiqa o‘tgach)

Iqitibos

Profil ShX

L1on ®

Jins:
Yigit
Staj:
10 oy 4 kun
Xabarlar:
11
Taqiq:

Yangilandi!

Mavzu yaratish 13-Dek-2018 22:36 (11 daqiqa o‘tgach)

Iqitibos

Profil ShX

AxeL

Jins:
Yigit
Staj:
1 yil 2 oy
Xabarlar:
741

Qayerdan: Gronland, Norway

Taqiq:

6975Audio: MP3 22050Hz stereo 7kbps
rostanam shunaqami ovozi?
sifat BDRip emas bu DVDRip, qaysi tilda ekanliginiyam yozib qo'ying

Mavzu yaratish 14-Dek-2018 00:14 (1 soat 37 daqiqa o‘tgach)

Iqitibos

Profil ShX

Topik HEVC Kinofilmlar forumidan 2011-yil va undan oldingi yil fillmlari ga ko‘chirildi
AxeL

Mavzu yaratish 14-Dek-2018 00:19 (5 daqiqa o‘tgach)

L1on ®

Jins:
Yigit
Staj:
10 oy 4 kun
Xabarlar:
11
Taqiq:

6980
6975Audio: MP3 22050Hz stereo 7kbps
rostanam shunaqami ovozi?
sifat BDRip emas bu DVDRip, qaysi tilda ekanliginiyam yozib qo'ying

Mavzu yaratish 14-Dek-2018 09:08 (8 soat o‘tgach)

Iqitibos

Profil ShX
Xabarlarni ko‘rsatish:    

Hozirgi vaqt: 19-May 15:58

Vaqtlar farqi: UTC + 5



Siz mavzu yaratishingiz mumkin emas
Siz xabarlarga javob qaytarishingiz mumkin emas
Siz o‘z xabarlaringizni tahrirlashingiz mumkin emas
Siz o‘z xabarlaringizni o‘chirishingiz mumkin emas
Siz so‘rovlarda ovoz berishingiz mumkin emas
Siz xabalarga fayllarni biriktirishingiz mumkin emas
Siz fayllarni ko‘chirishingiz mumkin emas