˂
˃
Tarqatmalar statistikasi
Ko‘chiraman: [ 1 ]
Ko‘chirmoqdaman: [ 2 ]
Ko‘chirib bo‘ldim: [ 10 ]
 
     
 
 

rameo1988 ®

Jins:
Yigit
Staj:
5 oy 6 kun
Xabarlar:
61

Qayerdan: Tashkent

Taqiq:

Yulduzlar Ayibdormi | Виноваты звезды | The Fault in Our Stars- -Chiqqan yili: 2014
Davlat: AQSH
Janr: Drama, Romantik.
Davomiyligi: 02:12:53
Tarjima: Professional (Ko'p ovozli kadr ortidan) (O'zbek tilida)
Tarjima: Professional (dublyaj qilingan) (Rus tilida)-Rejissyor: Josh Boone-Rollarda: Shailene woodley (Hazel), Ansel Elgort (Gus), Laura Dern (Frannie), Sam Trammell (Michael), Nat Wolf (Isaac), Willem Dafoe (Peter van Houten), Lotta Werbeck (Lidewij), Asosiy Dela Cruz, Randy kovits, Toni saladna...-Tavsif: Hazel saraton kasalligiga chalingan. Kasallik vaqtincha to'xtab qolganiga qaramay, qiz quvonchni his qilmaydi. U avgust oyida Agastis Votirs bilan uchrash qoladi va u bn yordamchi guruhga billa boradi. Agastis Osteosarkom kasaligiga chailingan. Agastis va Hazel hayot va hayotning barcha mazmunini uning biron bir qismida topish mumkinligini yana bir bor namoyon etgan. Ikkisini umri juda qisqa lekin ehtiros va hayot bilan to'la sayohatga chiqadi.-Reyting
-Videoning sifati: HDRip
Video format: MKV
Video: 720x384, 23.976 fps, 1 079 kbps
Audio: Dolby AC3 48000Hz 6ch 384kbps Rus tilida
Audio 2: AAC 44000Hz stereo 2ch 192 kbps O'zbek tilida

Lavhalar

Media Info

D:\HD\Yulduzlar Ayibdormi_2014.HDRip.mkv
General
Unique ID : 18677530843192747135536679130852852886 (0xE0D295E364A3E7AFBDC8E4493758496)
Complete name : D:\HD\Yulduzlar Ayibdormi_2014.HDRip.mkv
Format : Matroska
Format version : Version 4 / Version 2
File size : 1.54 GiB
Duration : 2 h 12 min
Overall bit rate : 1 657 kb/s
Encoded date : UTC 2018-12-16 13:35:30
Writing application : mkvmerge v29.0.0 ('Like It Or Not') 64-bit
Writing library : libebml v1.3.6 + libmatroska v1.4.9
Video #3
ID : 3
Format : MPEG-4 Visual
Format profile : Advanced Simple@L5
Format settings : BVOP2
Format settings, BVOP : 2
Format settings, QPel : No
Format settings, GMC : No warppoints
Format settings, Matrix : Default (MPEG)
Codec ID : V_MS/VFW/FOURCC / XVID
Codec ID/Hint : XviD
Duration : 2 h 12 min
Bit rate : 1 079 kb/s
Width : 720 pixels
Height : 384 pixels
Display aspect ratio : 1.85:1
Frame rate mode : Constant
Frame rate : 23.976 (24000/1001) FPS
Color space : YUV
Chroma subsampling : 4:2:0
Bit depth : 8 bits
Scan type : Progressive
Compression mode : Lossy
Bits/(Pixel*Frame) : 0.163
Stream size : 1.00 GiB (65%)
Writing library : XviD 1.2.1 (UTC 2008-12-04)
Default : Yes
Forced : No
Audio #1
ID : 1
Format : AC-3
Format/Info : Audio Coding 3
Codec ID : A_AC3
Duration : 2 h 12 min
Bit rate mode : Constant
Bit rate : 384 kb/s
Channel(s) : 6 channels
Channel positions : Front: L C R, Side: L R, LFE
Sampling rate : 48.0 kHz
Frame rate : 31.250 FPS (1536 SPF)
Bit depth : 16 bits
Compression mode : Lossy
Stream size : 365 MiB (23%)
Title : RUS
Language : Russian
Service kind : Complete Main
Default : Yes
Forced : No
Audio #2
ID : 2
Format : MPEG Audio
Format version : Version 1
Format profile : Layer 3
Format settings : Joint stereo / MS Stereo
Codec ID : A_MPEG/L3
Codec ID/Hint : MP3
Duration : 2 h 12 min
Bit rate mode : Constant
Bit rate : 192 kb/s
Channel(s) : 2 channels
Sampling rate : 44.1 kHz
Frame rate : 38.281 FPS (1152 SPF)
Compression mode : Lossy
Stream size : 183 MiB (12%)
Title : UZB (by ZET)
Writing library : LAME3.98.4
Language : Uzbek
Default : No
Forced : No
.torrent yuklash

Yuqori tezlikda va bepul ko‘chirish!

Qanday yuklab olinadi? · Torrent nima o‘zi? · Reyting va cheklovlar



So‘ngi marta tahrirlandi: rameo1988 (2018-12-22 11:16), Jami tahrirlangan 4 marta
Profil ShX

rameo1988 ®

Jins:
Yigit
Staj:
5 oy 6 kun
Xabarlar:
61

Qayerdan: Tashkent

Taqiq:

Ovoz Yo'lakchasi Judayam Zo'r Tekshirganman xatokamchiliklari bo'lsa Uzur

Mavzu yaratish 17-Dek-2018 14:19 (3 daqiqa o‘tgach)

Iqitibos

Profil ShX

N.U.R.I.K.B.E.K

Jins:
Yigit
Staj:
1 yil 6 oy
Xabarlar:
466

Qayerdan: Jizzax. Paxtakor

Taqiq:

rameo1988, Bit rate to'g'ri kemayapti media infoniki bilan

Mavzu yaratish 17-Dek-2018 15:17 (58 daqiqa o‘tgach)

Iqitibos

Profil ShX

rameo1988 ®

Jins:
Yigit
Staj:
5 oy 6 kun
Xabarlar:
61

Qayerdan: Tashkent

Taqiq:

N.U.R.I.K.B.E.K, xozi qarab to'g'irlab qo'yaman

Mavzu yaratish 17-Dek-2018 15:32 (14 daqiqa o‘tgach)

Iqitibos

Profil ShX

azizbek

Jins:
Yigit
Staj:
1 yil 6 oy
Xabarlar:
166

Qayerdan: Surxondaryo

Taqiq:

rameo1988, reyting yaxshi ekan. Zo'r kinoga o'xshayapti

Mavzu yaratish 17-Dek-2018 16:16 (44 daqiqa o‘tgach)

Iqitibos

Profil ShX

N.U.R.I.K.B.E.K

Jins:
Yigit
Staj:
1 yil 6 oy
Xabarlar:
466

Qayerdan: Jizzax. Paxtakor

Taqiq:

azizbek, melodramaku ko'rmaganmisiz yaxshi kino

Mavzu yaratish 17-Dek-2018 16:21 (4 daqiqa o‘tgach)

Iqitibos

Profil ShX

azizbek

Jins:
Yigit
Staj:
1 yil 6 oy
Xabarlar:
166

Qayerdan: Surxondaryo

Taqiq:

N.U.R.I.K.B.E.K, 1 oyda 1-2 kino ko'raman. Agar yaxshi kino bo'lsa. yoqmasa SHIF+DELETE

Mavzu yaratish 17-Dek-2018 16:50 (29 daqiqa o‘tgach)

Iqitibos

Profil ShX

azizbek

Jins:
Yigit
Staj:
1 yil 6 oy
Xabarlar:
166

Qayerdan: Surxondaryo

Taqiq:

rameo1988, Tarqaatishiz yaxshiku 460 Kbayt/s ga boryapti

Mavzu yaratish 17-Dek-2018 16:51 (43 soniya o‘tgach)

Iqitibos

Profil ShX

rameo1988 ®

Jins:
Yigit
Staj:
5 oy 6 kun
Xabarlar:
61

Qayerdan: Tashkent

Taqiq:

N.U.R.I.K.B.E.K, Juda zo'r kino tavsiya qilaman ko'rila kino juda tasirliy
Ko'chirila Tas-ix Tezligim 12mb Xamasini qanaqib tarqatsam bo'ladi

Mavzu yaratish 17-Dek-2018 17:23 (32 daqiqa o‘tgach)

Iqitibos

Profil ShX

Soft-Release

Jins:
Yigit
Staj:
1 yil 2 oy
Xabarlar:
773

Qayerdan: Kattakurgan

Taqiq:

7011N.U.R.I.K.B.E.K, Juda zo'r kino tavsiya qilaman ko'rila kino juda tasirliy
Ko'chirila Tas-ix Tezligim 12mb Xamasini qanaqib tarqatsam bo'ladi
Shunchaki Ko'proq Hohlaganizcha Reliz Qilavering va Uztrackerdagi Torrent Faylini Ko'chirib Olib Tarqatishga Qo'yib Qo'ying! uTorrentiz Yoniq Holda Tursin Kimdir Ko'chirsa O'zi Tarqatilaveradi! 12 Mb/s Yaxshi Skorost! Hohlagancha Reliz Qilsangiz Ham Tarqatib Tashlar Ekansiz! Biror Yordam Kerak Bo'lsa Tortinmang! LS ga Xabar Qilavering Qo'limdan Kelgunch Yordam Qilaman! Ishlarizga Omad! Sog'-salomat Bo'ling! Reliz Qilishda Charchamang!

Mavzu yaratish 17-Dek-2018 19:02 (1 soat 38 daqiqa o‘tgach)

Iqitibos

Profil ShX

AxeL

Jins:
Yigit
Staj:
1 yil 2 oy
Xabarlar:
741

Qayerdan: Gronland, Norway

Taqiq:

Xatolarizni tog'irlab qo'ydim, boshlanishiga a'lo, reliz qilishda charchamang, ishlarizga omad

Mavzu yaratish 17-Dek-2018 20:17 (1 soat 15 daqiqa o‘tgach)

Iqitibos

Profil ShX

djaxa55555

Jins:
Yigit
Staj:
4 oy 6 kun
Xabarlar:
4

Qayerdan: Тошкент

Taqiq:

Жонга тегмидиде шунака кинола

Mavzu yaratish 13-Yan-2019 18:53 (26 kun o‘tgach)

Iqitibos

Profil ShX
Xabarlarni ko‘rsatish:    

Hozirgi vaqt: 19-May 16:55

Vaqtlar farqi: UTC + 5



Siz mavzu yaratishingiz mumkin emas
Siz xabarlarga javob qaytarishingiz mumkin emas
Siz o‘z xabarlaringizni tahrirlashingiz mumkin emas
Siz o‘z xabarlaringizni o‘chirishingiz mumkin emas
Siz so‘rovlarda ovoz berishingiz mumkin emas
Siz xabalarga fayllarni biriktirishingiz mumkin emas
Siz fayllarni ko‘chirishingiz mumkin emas