˂
˃
Tarqatmalar statistikasi
Ko‘chirmoqdaman: [ 8 ]
Ko‘chirib bo‘ldim: [ 20 ]
 
     
 
 

rameo1988 ®

Jins:
Yigit
Staj:
5 oy 6 kun
Xabarlar:
61

Qayerdan: Tashkent

Taqiq:

MUSTANG | Спирит: Душа прерий | Spirit: Stallion of the Cimarron- -Chiqqan yili: 2002
Davlat: AQSH
Janr: G'arb, Melodrama, Sarguzasht, Oila
Davomiyligi: 01:23:25
Tarjima: Professional (Ko'p ovozli kadr ortidan) (O'zbek tilida)-Rejissyor: Kelly Asbury, Lorna Kuk-Rollarda:
Adam Pol, Jeyms Cromwell, Jeff LeBo, Jon Rubano, Daniel Studi, Matt Damon, Matt Levin, Richard Makgonagl, Robert Kite, Chopper Burnet-Tavsif: Ushbu sarguzasht multfilmi butun Amerika bo'ylab sayohat qiluvchi yovvoyi ot Mustang Spiritatning hikoyasini bayon etadi. Jasoratli Ruh hindistonlik Lakota bilan do'stlik qiladi va "Yomg'ir" deb nomlangan go'zal marvarid bilan sevgini topadi.Har bir kishi uni bo'ysintirishga xarakat qilidilekin u bo'ysinmas mustang nomi bn qoladi...-Reyting:
-Videoning sifati: HDRip
Video format: AVI
Video: 23.976 fps, 1 174 kbps
Audio: 48 kHz, AC3, 2 ch, 128 kbps

Lavhalar

Media Info

D:\HD\Mustang_Uzb.HDRip.avi
General
Complete name : D:\HD\Mustang_Uzb.HDRip.avi
Format : AVI
Format/Info : Audio Video Interleave
File size : 701 MiB
Duration : 1 h 23 min
Overall bit rate : 1 174 kb/s
Movie name : ~Sahaa~
Writing application : Lavf56.33.101
Video #0
ID : 0
Format : MPEG-4 Visual
Format profile : Simple@L3
Format settings, BVOP : No
Format settings, QPel : No
Format settings, GMC : No warppoints
Format settings, Matrix : Default (H.263)
Codec ID : XVID
Codec ID/Hint : XviD
Duration : 1 h 23 min
Bit rate : 1 034 kb/s
Width : 720 pixels
Height : 384 pixels
Display aspect ratio : 2.40:1
Frame rate : 23.976 (24000/1001) FPS
Color space : YUV
Chroma subsampling : 4:2:0
Bit depth : 8 bits
Scan type : Progressive
Compression mode : Lossy
Bits/(Pixel*Frame) : 0.218
Stream size : 617 MiB (88%)
Writing library : XviD 65
Audio #1
ID : 1
Format : MPEG Audio
Format version : Version 1
Format profile : Layer 3
Codec ID : 55
Codec ID/Hint : MP3
Duration : 1 h 23 min
Bit rate mode : Constant
Bit rate : 128 kb/s
Channel(s) : 2 channels
Sampling rate : 48.0 kHz
Compression mode : Lossy
Stream size : 76.4 MiB (11%)
Alignment : Aligned on interleaves
Interleave, duration : 24 ms (0.58 video frame)
Interleave, preload duration : 24 ms
.torrent yuklash

Yuqori tezlikda va bepul ko‘chirish!

Qanday yuklab olinadi? · Torrent nima o‘zi? · Reyting va cheklovlar



So‘ngi marta tahrirlandi: rameo1988 (2018-12-22 11:16), Jami tahrirlangan 13 marta
Profil ShX

N.U.R.I.K.B.E.K

Jins:
Yigit
Staj:
1 yil 6 oy
Xabarlar:
466

Qayerdan: Jizzax. Paxtakor

Taqiq:

torrent fayl qani

Mavzu yaratish 17-Dek-2018 17:56 (1 daqiqa o‘tgach)

Iqitibos

Profil ShX

rameo1988 ®

Jins:
Yigit
Staj:
5 oy 6 kun
Xabarlar:
61

Qayerdan: Tashkent

Taqiq:

N.U.R.I.K.B.E.K, tushumadim joylagandim nimaga chiqmaganini tuwumayaman qanaqib togirlasa bo'ladi

Mavzu yaratish 17-Dek-2018 17:59 (2 daqiqa o‘tgach)

Iqitibos

Profil ShX

rameo1988 ®

Jins:
Yigit
Staj:
5 oy 6 kun
Xabarlar:
61

Qayerdan: Tashkent

Taqiq:

Mavzu yaratish 17-Dek-2018 18:04 (5 daqiqa o‘tgach)

Iqitibos

Profil ShX

rameo1988 ®

Jins:
Yigit
Staj:
5 oy 6 kun
Xabarlar:
61

Qayerdan: Tashkent

Taqiq:

mana turibdi fayil nimaga tuwmaganini bilmadim qanaqib to'girliman biladigonla etvorila

Mavzu yaratish 17-Dek-2018 18:05 (50 soniya o‘tgach)

Iqitibos

Profil ShX

L1on

Jins:
Yigit
Staj:
10 oy 4 kun
Xabarlar:
11
Taqiq:

Faylni o'chirish degan joyga bosasiz keyin 2-qatorga torrent faylni tanlaysiz undan so'ng jo'natishni bosasiz!

Mavzu yaratish 17-Dek-2018 18:17 (12 daqiqa o‘tgach)

Iqitibos

Profil ShX

rameo1988 ®

Jins:
Yigit
Staj:
5 oy 6 kun
Xabarlar:
61

Qayerdan: Tashkent

Taqiq:

L1on, mediinfoga qo'wvoriman raxmat To'g'irlandi

Mavzu yaratish 17-Dek-2018 18:23 (5 daqiqa o‘tgach)

Iqitibos

Profil ShX

AxeL

Jins:
Yigit
Staj:
1 yil 2 oy
Xabarlar:
741

Qayerdan: Gronland, Norway

Taqiq:

ishlaringizda omad, yangilarini ham kutib qolamiz

Mavzu yaratish 17-Dek-2018 20:09 (1 soat 46 daqiqa o‘tgach)

Iqitibos

Profil ShX

N.U.R.I.K.B.E.K

Jins:
Yigit
Staj:
1 yil 6 oy
Xabarlar:
466

Qayerdan: Jizzax. Paxtakor

Taqiq:

rameo1988, lavhalar linkini [thumb] [/thumb] eskiz orasiga joylang

Mavzu yaratish 17-Dek-2018 23:06 (2 soat 57 daqiqa o‘tgach)

Iqitibos

Profil ShX

rameo1988 ®

Jins:
Yigit
Staj:
5 oy 6 kun
Xabarlar:
61

Qayerdan: Tashkent

Taqiq:

AxeL, Raxmat

Mavzu yaratish 18-Dek-2018 00:18 (1 soat 11 daqiqa o‘tgach)

Iqitibos

Profil ShX

MRLG

Jins:
Yigit
Staj:
1 yil 9 oy
Xabarlar:
595
Taqiq:

Amerika bo'ylab sayohat qiluvchi yovvoyi ayiq
Qoyil, Bu film ayiq haqidaligini endi o'qib turishim. rameo1988, bundan keyin joylayotgan relizlaringizni mazmuni bilan o'ziz tanishib chiqishingizni maslahat beraman. Imlo xatolarisiz to'ldiring. Tavsifni o'qib chiqing.

Mavzu yaratish 18-Dek-2018 09:54 (9 soat o‘tgach)

Iqitibos

Profil ShX

rameo1988 ®

Jins:
Yigit
Staj:
5 oy 6 kun
Xabarlar:
61

Qayerdan: Tashkent

Taqiq:

MRLG, Uzur axamiyat bermanman Maslaxatla u4un raxmat to'g'irlab qo'ydim

Mavzu yaratish 18-Dek-2018 12:06 (2 soat 12 daqiqa o‘tgach)

Iqitibos

Profil ShX
Xabarlarni ko‘rsatish:    

Hozirgi vaqt: 19-May 15:28

Vaqtlar farqi: UTC + 5



Siz mavzu yaratishingiz mumkin emas
Siz xabarlarga javob qaytarishingiz mumkin emas
Siz o‘z xabarlaringizni tahrirlashingiz mumkin emas
Siz o‘z xabarlaringizni o‘chirishingiz mumkin emas
Siz so‘rovlarda ovoz berishingiz mumkin emas
Siz xabalarga fayllarni biriktirishingiz mumkin emas
Siz fayllarni ko‘chirishingiz mumkin emas