˂
˃
Tarqatmalar statistikasi
Ko‘chirmoqdaman: [ 4 ]
Ko‘chirib bo‘ldim: [ 5 ]
 
     
 
 

rameo1988 ®

Jins:
Yigit
Staj:
5 oy 6 kun
Xabarlar:
61

Qayerdan: Tashkent

Taqiq:

-Assasinlar Siri | Кредо Убийцы | Assassin's Creed- -Chiqqan yili: 2016
Davlat: Buyuk Britaniya, Gonkong, AQSH, Fransiya.
Janr: Fantastik, Hayoliy, Jangari, Sarguzasht.
Davomiyligi: 01:55:31
Tarjima: Professional (dublyaj qilingan) (O'zbek tilida)
Tarjima: To'liq dublyaj - (Rus tilida)

Tarjima: Professional (dublyaj qilingan) (Eng tilida)
Subtitrlar: ruscha (to'liq), inglizcha (Full), inglizcha-Rejissyor: Jastin Kurzel.-Rollarda: Maykl Fassbender, Marion Kotiyar, Jeremi Ayrons, Brendan Glison, Sharlotta Rempling, Maykl Kennet Uilyams, Deni Menoshe, Ariana Labed, Xalid Abdalla, Essi Devis....-Tavsif: Asirlar mobaynida tampralerlarning shavkatliy ritsirlari odam otoning afsonaviy olmasini izlaydilar, ular inson itoatsizligini dastlabgi nishonasi bo'lgan ushbu olma, kishiga mutloq ozodlikni xadiya etadi deb ishonadilar, uning sirini fosh etgach ular bashariyat ustidan nazorat qilishga urunishadi bu yo'lda faqatgina Assasinlar guruxi ularning yo'lga to'g'anoq bo'la olishadi...-Reyting
-Videoning sifati: BDRip-AVC
Video format: MKV
Video: AVC, (1920x1080) 1893 kbps, 23,976 fps, 9 329 Kbps
Audio №1: AAC / 48Hz stereo 2.0ch / 192 kbps / O'zbek tilida
Audio №2: AC-3 / 48Hz stereo 5.1ch / 448 Kbps / Rus tilida
Audio №3: DTS / 48Hz stereo 5.1ch / 1 510 kbps / Eng tilida

Media Info

D:\Assassins.Creed.2016.D.BDRip.1080p.mkv
General
Unique ID : 3976235615702129981701411893678004462 (0x2FDCB8D3C1BA72CA9D6F8D5E2BD58EE)
Complete name : D:\Assassins.Creed.2016.D.BDRip.1080p.mkv
Format : Matroska
Format version : Version 4 / Version 2
File size : 9.24 GiB
Duration : 1h 55mn
Overall bit rate : 11.4 Mbps
Encoded date : UTC 2018-12-19 09:15:23
Writing application : mkvmerge v29.0.0 ('Like It Or Not') 64-bit
Writing library : libebml v1.3.6 + libmatroska v1.4.9
DURATION : 01:55:30.947000000
NUMBER_OF_FRAMES : 298491
NUMBER_OF_BYTES : 137976712
_STATISTICS_WRITING_APP : mkvmerge v29.0.0 ('Like It Or Not') 64-bit
_STATISTICS_WRITING_DATE_UTC : 2018-12-19 09:15:23
_STATISTICS_TAGS : BPS DURATION NUMBER_OF_FRAMES NUMBER_OF_BYTES
Video #1
ID : 0
Format : AVC
Format/Info : Advanced Video Codec
Format profile : High@L4.1
Format settings, CABAC : Yes
Format settings, ReFrames : 5 frames
Codec ID : V_MPEG4/ISO/AVC
Duration : 1h 55mn
Nominal bit rate : 9 329 Kbps
Width : 1 920 pixels
Height :1 080 pixels
Display aspect ratio : 2.40:1
Frame rate : 23.976 fps
Color space : YUV
Chroma subsampling : 4:2:0
Bit depth : 8 bits
Scan type : Progressive
Bits/(Pixel*Frame) : 0.251
Writing library : x264 core 148 r2744 b97ae06
Encoding settings : cabac=1 / ref=5 / deblock=1:0:0 / analyse=0x3:0x133 / me=umh / subme=7 / psy=1 / psy_rd=1.00:0.00 / mixed_ref=1 / me_range=16 / chroma_me=1 / trellis=1 / 8x8dct=1 / cqm=0 / deadzone=21,11 / fast_pskip=0 / chroma_qp_offset=-2 / threads=25 / lookahead_threads=4 / sliced_threads=0 / nr=0 / decimate=1 / interlaced=0 / bluray_compat=0 / constrained_intra=0 / bframes=3 / b_pyramid=2 / b_adapt=1 / b_bias=0 / direct=1 / weightb=1 / open_gop=0 / weightp=2 / keyint=250 / keyint_min=23 / scenecut=40 / intra_refresh=0 / rc_lookahead=40 / rc=2pass / mbtree=1 / bitrate=9329 / ratetol=1.0 / qcomp=0.60 / qpmin=0 / qpmax=69 / qpstep=4 / cplxblur=20.0 / qblur=0.5 / ip_ratio=1.40 / aq=1:1.00
Language : English
Default : Yes
Forced : No
DURATION : 01:55:30.935000000
NUMBER_OF_FRAMES : 166176
NUMBER_OF_BYTES : 8080157076
_STATISTICS_WRITING_APP : mkvmerge v29.0.0 ('Like It Or Not') 64-bit
_STATISTICS_WRITING_DATE_UTC : 2018-12-19 09:15:23
_STATISTICS_TAGS : BPS DURATION NUMBER_OF_FRAMES NUMBER_OF_BYTES
Audio #1
ID : 1
Format : AAC
Format/Info : Advanced Audio Codec
Format profile : LC
Codec ID : A_AAC
Duration : 1h 55mn
Bit rate mode : Constant
Bit rate : 192 Kbps
Channel(s) : 2 channels
Channel positions : Front: L R
Sampling rate : 48.1 KHz
Compression mode : Lossy
Title : Uzbek by ZET
Language : Uzbek
Default : No
Forced : No
Audio #2
ID : 2
Format : AC-3
Format/Info : Audio Coding 3
Mode extension : CM (complete main)
Format settings, Endianness : Big
Codec ID : A_AC3
Duration : 1h 55mn
Bit rate mode : Constant
Bit rate : 448 Kbps
Channel(s) : 6 channels
Channel positions : Front: L C R, Side: L R, LFE
Sampling rate : 48.0 KHz
Bit depth : 16 bits
Compression mode : Lossy
Stream size : 370 MiB (4%)
Title : Russion
Language : Russian
Default : Yes
Forced : No
Audio #3
ID : 3
Format : DTS
Format/Info : Digital Theater Systems
Codec ID : A_DTS
Duration : 1h 55mn
Bit rate mode : Constant
Bit rate : 1 510 Kbps
Channel(s) : 6 channels
Channel positions : Front: L C R, Side: L R, LFE
Sampling rate : 48.0 KHz
Bit depth : 24 bits
Compression mode : Lossy
Stream size : 1.22 GiB (13%)
Title : English
Language : English
Default : No
Forced : No
Text #4
ID : 4
Format : UTF-8
Codec ID : S_TEXT/UTF8
Codec ID/Info : UTF-8 Plain Text
Title : Forced
Language : Russian
Default : Yes
Forced : No
Text #5
ID : 5
Format : UTF-8
Codec ID : S_TEXT/UTF8
Codec ID/Info : UTF-8 Plain Text
Title : Full
Language : Russian
Default : No
Forced : No
Text #6
ID : 6
Format : UTF-8
Codec ID : S_TEXT/UTF8
Codec ID/Info : UTF-8 Plain Text
Title : English-Forced
Language : English
Default : No
Forced : No
Text #7
ID : 7
Format : UTF-8
Codec ID : S_TEXT/UTF8
Codec ID/Info : UTF-8 Plain Text
Title : Full
Language : English
Default : No
Forced : No
Text #8
ID : 8
Format : UTF-8
Codec ID : S_TEXT/UTF8
Codec ID/Info : UTF-8 Plain Text
Title : SDH
Language : English
Default : No
Forced : No
.torrent yuklash

Yuqori tezlikda va bepul ko‘chirish!

Qanday yuklab olinadi? · Torrent nima o‘zi? · Reyting va cheklovlar



So‘ngi marta tahrirlandi: rameo1988 (2018-12-22 11:11), Jami tahrirlangan 2 marta
Profil ShX

rameo1988 ®

Jins:
Yigit
Staj:
5 oy 6 kun
Xabarlar:
61

Qayerdan: Tashkent

Taqiq:

Xato kamchiliklari Uchun oldindan uzur so'riman Ovaz yo'lakchasi Idyal darajada tekshirganman

Mavzu yaratish 19-Dek-2018 17:59 (4 daqiqa o‘tgach)

Iqitibos

Profil ShX

rameo1988 ®

Jins:
Yigit
Staj:
5 oy 6 kun
Xabarlar:
61

Qayerdan: Tashkent

Taqiq:

Ko'chirishga Momo Bo'midi Tas-ix Tezligim 12mb

Mavzu yaratish 19-Dek-2018 18:05 (6 daqiqa o‘tgach)

Iqitibos

Profil ShX

rameo1988 ®

Jins:
Yigit
Staj:
5 oy 6 kun
Xabarlar:
61

Qayerdan: Tashkent

Taqiq:

MRLG oka yaxwimisiz qanaqib kotta skorist tarqatsam boladi

Mavzu yaratish 19-Dek-2018 20:02 (1 soat 56 daqiqa o‘tgach)

Iqitibos

Profil ShX

MRLG

Jins:
Yigit
Staj:
1 yil 9 oy
Xabarlar:
595
Taqiq:

rameo1988, bu ko'chirib oluvchini tezligiga ham bog'liq. Siz 1 MB/sek da tarqatishga qurbingiz yetsa ham, ko'chirib oluvchi 200 kb/sek dan ziyod ko'chira olmasa siz bor tezligizda tarqata olmaysiz. Sizni razdachangizga tezroq ulanishlarini xohlasangiz kompyuteringizga IPv6 - Teredo xizmatini yoqing. Qanday qilib kompyuterda teredo yoqish bo'yicha qo'llanma bu yerda bor: http://uztracker.me/viewtopic.php?t=16

Mavzu yaratish 20-Dek-2018 08:50 (12 soat o‘tgach)

Iqitibos

Profil ShX

rameo1988 ®

Jins:
Yigit
Staj:
5 oy 6 kun
Xabarlar:
61

Qayerdan: Tashkent

Taqiq:

MRLG, raxmat

Mavzu yaratish 20-Dek-2018 09:48 (58 daqiqa o‘tgach)

Iqitibos

Profil ShX
Xabarlarni ko‘rsatish:    

Hozirgi vaqt: 19-May 16:58

Vaqtlar farqi: UTC + 5



Siz mavzu yaratishingiz mumkin emas
Siz xabarlarga javob qaytarishingiz mumkin emas
Siz o‘z xabarlaringizni tahrirlashingiz mumkin emas
Siz o‘z xabarlaringizni o‘chirishingiz mumkin emas
Siz so‘rovlarda ovoz berishingiz mumkin emas
Siz xabalarga fayllarni biriktirishingiz mumkin emas
Siz fayllarni ko‘chirishingiz mumkin emas