˂
˃
Tarqatmalar statistikasi
Ko‘chiraman: [ 1 ]
Ko‘chirmoqdaman: [ 25 ]
Ko‘chirib bo‘ldim: [ 13 ]
 
     
 
 

Lock ®

Jins:
Yigit
Staj:
7 oy 10 kun
Xabarlar:
39

Qayerdan: Namangan

Taqiq:

-3 Savdoyi | Три идиота | 3 Idiots- Chiqqan yili: 2009
Davlat: Hindiston
Janr: Drama, Melodrama, Komediya
Davomiyligi: 02:51:07
Tarjima: Professional [Ko'p ovozli]
Rejissyor: Rajkumar Hirani- Rollarda: Aamir Khan, R. Madhavan, Sharman Joshi, Kareena Kapoor, Boman Irani, Omi Vaidya- Tavsif: Ikki do'st yo'qolib qolgan do'stini qidirishmoqda. Bu sayohatda ular doimo unutilgan kelishmovchiliklarga aralashib, boshqalarning to'yini bezovta qiladilar va dafn marosimiga qatnashadilar. Ularning yo'llari xavfli joylardan o'tadi. Va bu erda xotiralar yo'llari bilan do'stlar emas, balki odatiy bo'lmagan sayohat boshlanadi. Ular do'stlarini, erkin fikrlaydigan Ranchoni eslaydilar. U hayratlanarli tarzda o'z hayotlariga kirib, undagi hamma narsani o'zgartirgan. Ular talabalar yotoqxonasida yashagan kunlarni eslashadi.- - Videoning sifati: BDRip-AVC HEVC 12 bit
Video format: MKV
Video: HEVC 1920x816 24fps 3002 kb/s
Audio 1: AAC 48000Hz 6ch 489 kb/s | Hindcha Original
Audio 5: AAC 44100Hz 2ch 192 kb/s | O'zbek tilida
Subtitrlar: ENG
-

Media Info

General
Unique ID : 44435051293005517739147614719322307226 (0x216DE12C95AD8232718CFCC7589F3A9A)
Complete name : E:\MEDIA\Перевод\3 Idiots 2009 1080p BluRay 12bit x265 5.1 AAC HEVC.mkv
Format : Matroska
Format version : Version 4 / Version 2
File size : 4.93 GiB
Duration : 2 h 51 min
Overall bit rate : 4 126 kb/s
Movie name : 3 Idiots
Encoded date : UTC 2018-12-20 02:34:45
Writing application : mkvmerge v28.2.0 ('The Awakening') 64-bit
Writing library : libebml v1.3.6 + libmatroska v1.4.9
Cover : Yes
Attachments : cover.jpg
Writing frontend : Natty
Video
ID : 1
Format : HEVC
Format/Info : High Efficiency Video Coding
Format profile : @L4@Main
Codec ID : V_MPEGH/ISO/HEVC
Duration : 2 h 51 min
Bit rate : 3 002 kb/s
Width : 1 920 pixels
Height : 816 pixels
Display aspect ratio : 2.35:1
Frame rate mode : Constant
Frame rate : 24.000 FPS
Color space : YUV
Chroma subsampling : 4:2:0
Bit depth : 12 bits
Bits/(Pixel*Frame) : 0.080
Stream size : 3.59 GiB (73%)
Title : 3 Idiots 2009 1080p BluRay 12bit x265 5.1 AAC HEVC Natty
Writing library : x265 2.5+49-563cbe1f4a21:[Windows][MSVC 1911][64 bit] 12bit
Encoding settings : cpuid=1173503 / frame-threads=2 / numa-pools=4 / wpp / no-pmode / no-pme / no-psnr / no-ssim / log-level=2 / csvfn=D:\Encoding\3idiots\3_IDIOTS_t00_new.csv / csv-log-level=0 / input-csp=1 / input-res=1920x816 / interlace=0 / total-frames=246415 / level-idc=0 / high-tier=1 / uhd-bd=0 / ref=6 / no-allow-non-conformance / no-repeat-headers / annexb / no-aud / no-hrd / info / hash=0 / no-temporal-layers / open-gop / min-keyint=24 / keyint=400 / bframes=8 / b-adapt=2 / b-pyramid / bframe-bias=0 / rc-lookahead=100 / lookahead-slices=5 / scenecut=40 / no-intra-refresh / ctu=32 / min-cu-size=8 / no-rect / no-amp / max-tu-size=16 / tu-inter-depth=1 / tu-intra-depth=1 / limit-tu=0 / rdoq-level=2 / dynamic-rd=0.00 / no-ssim-rd / signhide / no-tskip / nr-intra=0 / nr-inter=0 / no-constrained-intra / no-strong-intra-smoothing / max-merge=2 / limit-refs=3 / limit-modes / me=3 / subme=5 / merange=57 / temporal-mvp / weightp / no-weightb / no-analyze-src-pics / deblock=-3:0 / no-sao / no-sao-non-deblock / rd=4 / no-early-skip / rskip / no-fast-intra / no-tskip-fast / no-cu-lossless / no-b-intra / no-splitrd-skip / rdpenalty=0 / psy-rd=2.00 / psy-rdoq=6.00 / no-rd-refine / analysis-reuse-mode=0 / no-lossless / cbqpoffs=0 / crqpoffs=0 / rc=abr / bitrate=3001 / qcomp=0.90 / qpstep=4 / stats-write=0 / stats-read=2 / cplxblur=20.0 / qblur=0.5 / ipratio=1.40 / pbratio=1.30 / aq-mode=3 / aq-strength=0.90 / cutree / zone-count=0 / no-strict-cbr / qg-size=16 / no-rc-grain / qpmax=69 / qpmin=0 / no-const-vbv / sar=0 / overscan=0 / videoformat=5 / range=1 / colorprim=1 / transfer=1 / colormatrix=1 / chromaloc=0 / display-window=0 / max-cll=0,0 / min-luma=0 / max-luma=4095 / log2-max-poc-lsb=8 / vui-timing-info / vui-hrd-info / slices=1 / opt-qp-pps / opt-ref-list-length-pps / multi-pass-opt-rps / scenecut-bias=0.05 / no-opt-cu-delta-qp / aq-motion / no-hdr / no-hdr-opt / no-dhdr10-opt / analysis-reuse-level=9 / scale-factor=0 / refine-intra=0 / refine-inter=0 / refine-mv=0 / no-limit-sao / ctu-info=0 / no-lowpass-dct / refine-mv-type=0
Default : Yes
Forced : No
Color range : Full
Color primaries : BT.709
Transfer characteristics : BT.709
Matrix coefficients : BT.709
Audio #1
ID : 2
Format : AAC
Format/Info : Advanced Audio Codec
Format profile : LC
Codec ID : A_AAC-2
Duration : 2 h 51 min
Bit rate : 489 kb/s
Channel(s) : 6 channels
Channel positions : Front: L C R, Side: L R, LFE
Sampling rate : 48.0 kHz
Frame rate : 46.875 FPS (1024 SPF)
Compression mode : Lossy
Delay relative to video : 20 ms
Stream size : 598 MiB (12%)
Title : Original
Language : Hindi
Default : Yes
Forced : No
Audio #2
ID : 8
Format : AAC
Format/Info : Advanced Audio Codec
Format profile : LC
Codec ID : A_AAC-2
Duration : 2 h 51 min
Bit rate : 192 kb/s
Channel(s) : 2 channels
Channel positions : Front: L R
Sampling rate : 44.1 kHz
Frame rate : 43.066 FPS (1024 SPF)
Compression mode : Lossy
Stream size : 236 MiB (5%)
Title : Uzbek
Language : Uzbek
Default : No
Forced : No
Text
ID : 6
Format : PGS
Muxing mode : zlib
Codec ID : S_HDMV/PGS
Codec ID/Info : Picture based subtitle format used on BDs/HD-DVDs
Duration : 2 h 46 min
Bit rate : 33.9 kb/s
Count of elements : 4266
Stream size : 40.5 MiB (1%)
Language : English
Default : Yes
Forced : No
LAVHALAR
.torrent yuklash

Yuqori tezlikda va bepul ko‘chirish!

Qanday yuklab olinadi? · Torrent nima o‘zi? · Reyting va cheklovlar



So‘ngi marta tahrirlandi: Lock (2019-02-20 15:04), Jami tahrirlangan 4 marta
Profil ShX

Topik HD, HD-AVC va yuqori sifatli Tarjima kinofilmlari forumidan HEVC Kinofilmlar ga ko‘chirildi
MRLG

Mavzu yaratish 20-Dek-2018 09:47 (24 daqiqa o‘tgach)

muhammaddiyor104

Jins:
Ko‘rsatilmagan
Staj:
1 yil 2 oy
Xabarlar:
18
Taqiq:

zor film gap yoq

Mavzu yaratish 20-Dek-2018 11:04 (1 soat 40 daqiqa o‘tgach)

Iqitibos

Profil ShX

Lock ®

Jins:
Yigit
Staj:
7 oy 10 kun
Xabarlar:
39

Qayerdan: Namangan

Taqiq:

Nimagadir relizlarni yaxshi tarqatolmayapman, nimadir qilish kerakmi

Mavzu yaratish 20-Dek-2018 13:13 (2 soat 8 daqiqa o‘tgach)

Iqitibos

Profil ShX

Soft-Release

Jins:
Yigit
Staj:
1 yil 2 oy
Xabarlar:
773

Qayerdan: Kattakurgan

Taqiq:

7042Nimagadir relizlarni yaxshi tarqatolmayapman, nimadir qilish kerakmi
Lock, Teredo O'rnatilganmi Sizda? Relizizni Ko'chiruvchilar Sizga Ulanishda Muammoga Duch Kelishmaydi Shunda

Mavzu yaratish 20-Dek-2018 14:18 (1 soat 5 daqiqa o‘tgach)

Iqitibos

Profil ShX

Lock ®

Jins:
Yigit
Staj:
7 oy 10 kun
Xabarlar:
39

Qayerdan: Namangan

Taqiq:

Soft-Release, o'rnatganman toredo, shu faqat tezlik ham past

Mavzu yaratish 21-Dek-2018 07:46 (17 soat o‘tgach)

Iqitibos

Profil ShX

AxeL

Jins:
Yigit
Staj:
1 yil 2 oy
Xabarlar:
741

Qayerdan: Gronland, Norway

Taqiq:

buni qachon tarqatasiz...

Mavzu yaratish 21-Dek-2018 22:32 (14 soat o‘tgach)

Iqitibos

Profil ShX

Lock ®

Jins:
Yigit
Staj:
7 oy 10 kun
Xabarlar:
39

Qayerdan: Namangan

Taqiq:

AxeL, Sharoit shunaqa sabr bersin endi, sekinroq tarqatamiz

Mavzu yaratish 22-Dek-2018 10:37 (12 soat o‘tgach)

Iqitibos

Profil ShX

Lock ®

Jins:
Yigit
Staj:
7 oy 10 kun
Xabarlar:
39

Qayerdan: Namangan

Taqiq:

1-dan internet uzilib qolaverib jonga tegyapti, ulangayam tarqatish yaxshi yurmayapti, sababchi Uzonline

Mavzu yaratish 22-Dek-2018 10:38 (1 daqiqa o‘tgach)

Iqitibos

Profil ShX

azizbek

Jins:
Yigit
Staj:
1 yil 6 oy
Xabarlar:
166

Qayerdan: Surxondaryo

Taqiq:

Lock, uzonlineda hammasi joyida. Agar tarqatishni istasangiz terredoni o'rnating qolganlar umidvor bo'lmasin
http://uztracker.me/topic-teredo_ornatish_boyicha_k...llanma-t=16.html
win7/8.1/10 uchun
http://uztracker.me/teredo.exe
xp uchun
http://uztracker.me/files/teredo_xp.zip

Mavzu yaratish 22-Dek-2018 14:08 (3 soat o‘tgach)

Iqitibos

Profil ShX

azizbek

Jins:
Yigit
Staj:
1 yil 6 oy
Xabarlar:
166

Qayerdan: Surxondaryo

Taqiq:

Lock, 11 ta licher bor. hammasi ulangan. Siz tarqatishda emassiz.

Mavzu yaratish 23-Dek-2018 00:48 (10 soat o‘tgach)

Iqitibos

Profil ShX

Soft-Release

Jins:
Yigit
Staj:
1 yil 2 oy
Xabarlar:
773

Qayerdan: Kattakurgan

Taqiq:

7074Lock, uzonlineda hammasi joyida. Agar tarqatishni istasangiz terredoni o'rnating qolganlar umidvor bo'lmasin
http://uztracker.me/topic-teredo_ornatish_boyicha_k...llanma-t=16.html
win7/8.1/10 uchun
http://uztracker.me/teredo.exe
xp uchun
http://uztracker.me/files/teredo_xp.zip
azizbek, Gap Teredoda Emas Internet Uzilib Yonib O'chib Yongan Bo'lsa Bu Tezlik Tushib Ketgan Liniyadan Liniyani Tekshirtirish Kerak Mantyor Chaqirib Liniyani Tozalab Qayta To'g'irlash Kerak! Menda Ham Shunday Bo'lgandi Skorostlarim Tushib Ketgandi Mantyorga Tel Qilaverdim 2 Hafta Deganda To'g'irlab Ketti!

Mavzu yaratish 23-Dek-2018 04:31 (3 soat o‘tgach)

Iqitibos

Profil ShX

Lock ®

Jins:
Yigit
Staj:
7 oy 10 kun
Xabarlar:
39

Qayerdan: Namangan

Taqiq:

Soft-Release, shu gap to'g'ri

Mavzu yaratish 24-Dek-2018 09:10 (1 kun 4 soat o‘tgach)

Iqitibos

Profil ShX

Lock ®

Jins:
Yigit
Staj:
7 oy 10 kun
Xabarlar:
39

Qayerdan: Namangan

Taqiq:

Torrent fayl yangilandi

Mavzu yaratish 20-Fev-2019 15:00 (1 oy 27 kun o‘tgach)

Iqitibos

Profil ShX

MRLG

Jins:
Yigit
Staj:
1 yil 9 oy
Xabarlar:
595
Taqiq:

Lock, Torrent fayl yangilanishi sababini ham ko'rsatib o'tsangiz. Oldingi relizdan nimasi bilan farq qiladi yangi torrent fayl?

Mavzu yaratish 20-Fev-2019 18:51 (3 soat o‘tgach)

Iqitibos

Profil ShX
Xabarlarni ko‘rsatish:    

Hozirgi vaqt: 19-May 15:30

Vaqtlar farqi: UTC + 5



Siz mavzu yaratishingiz mumkin emas
Siz xabarlarga javob qaytarishingiz mumkin emas
Siz o‘z xabarlaringizni tahrirlashingiz mumkin emas
Siz o‘z xabarlaringizni o‘chirishingiz mumkin emas
Siz so‘rovlarda ovoz berishingiz mumkin emas
Siz xabalarga fayllarni biriktirishingiz mumkin emas
Siz fayllarni ko‘chirishingiz mumkin emas