˂
˃
Tarqatmalar statistikasi
Ko‘chiraman: [ 1 ]
Ko‘chirmoqdaman: [ 11 ]
Ko‘chirib bo‘ldim: [ 23 ]
 
     
 
 

rameo1988 ®

Jins:
Yigit
Staj:
5 oy 6 kun
Xabarlar:
61

Qayerdan: Tashkent

Taqiq:

Uyda Yolg'iz [Ikktalik] | Один дома [Дилогия] | Home Alone [Dilogy]- -Chiqqan yili: 1990-1992
Davlat: AQSH
Janr: Komediya, oilaviy,
Tarjima: Professional (dublyaj qilingan) O'zbek tilida
Tarjima 2: Professional (dublyaj qilingan) Rus tilida
Tarjima 3: Professional (dublyaj qilingan) Eng tilida-Rejissyor: Chris Kolumb-Qo'sh. ma'lumot:
Jahon premerasi 1990 va 1992 yil-2ta "Oskar" 1991 yil Nominatsiyalar.
Eng yaxshi qo'shiq "Mening xotiramda"
Eng yaxshi original soundtrack-2ta "Oltin Globe" 1991 yi,l nominatsiyalar.
Eng yaxshi kino (komediya yoki musiqiy)
Eng yaxshi aktyor (komediya yoki musiqiy) (Macaulay Culkin)-Reyting

Uyda Yolg'iz / Один дома / Home Alone

Chiqqan yili: 1990
Davlat: AQSH
Janr: Komediya, oilaviy,
Davomiyligi: 01:42:54
Tarjima 1: Professional (Ko'p ovozli kadr ortidan) (O'zbek tilida)
Tarjima 2: Professional (dublyaj qilingan) (Rus tilida)
Tarjima 3: Professional (dublyaj qilingan) (Eng tilida)
Subtitrlar: ruscha (to'liq), inglizcha (Full), inglizcha
Rejissyor: Chris Kolumb
Rollarda:
Macaulay Culkin-(Kevin McCallister), Joe Peshi-(Harry Lime), Daniel Stern-(Marv Merchants), Ketrin O'Hara-(Kate McCallister), Jon Heard-(Peter McCallister), Roberts Blossom-(Old Man Marley), Jerri bamman-(Uncle Frank), Devin shitirlashi-(Buzz McCallister), Jon shirinlik-(Gus Polinski), Kiran Culkin-(Fuller McCallister), Angela Goethals-(Linnie McCallister), Hillary Wolf-(Megan McCallister), Larry Hankin-(Officer Balzak), Michael C. Maronna-(Jeff McCallister), Ralph Foody-(Johnny - Gangster #1)...
Tavsif: Safardan oldin nimani unutdingiz? Albatta sizning noto'g'ri fikringizni Chikagodagi McCallisterlar bilan taqqoslash mumkin emas. Rojdestvo paytida Amerika oilasi Evropaga yo'l oldi. Biroq, shovqin-suron va yig'ilishlarda tarqalgan ota-onalar o'g'illaridan birini uyda unutadilar. Biroq, yosh Bolakay yo'qolib qolmaydi va ixtiro mo''jizalarini ko'rsatadi.
Videoning sifati: BDRip-AVC
Video format: MKV
Video: AVC, (1920x1080) 1893 kbps, 23,976 fps, 9 770 Kbps
Audio 1: MP3 / 48Hz stereo 2.0ch / 128 kbps / O'zbek tilida
Audio 2: AC-3 / 48Hz stereo 5.1ch / 384 Kbps / Rus tilida (MVO)
Audio 3: AC-3 / 48Hz stereo 5.1ch / 192 kbps / Rus tilida (MVO) (ОРТ)
Audio 4: AC-3 / 48Hz stereo 5.1ch / 448 kbps / Eng tilida

Media Info

D:\HD\Home.Alone.Dilogy.1990-1992.BDRip.1080p\Home Alone.1.1990.BDRip.1080p.mkv
General
Unique ID : 248339313294954710630746639813782708764 (0xBAD46977CE1EE3168715A67C7586A21C)
Complete name : D:\HD\Home.Alone.Dilogy.1990-1992.BDRip.1080p\Home Alone.1.1990.BDRip.1080p.mkv
Format : Matroska
Format version : Version 4 / Version 2
File size : 7.84 GiB
Duration : 1h 42mn
Overall bit rate : 10.9 Mbps
Movie name : Îäèí äîìà (1990) BDRip (1080p)
Encoded date : UTC 2013-12-22 15:29:17
Writing application : mkvmerge v6.2.0 ('Promised Land') built on Apr 28 2013 12:22:01
Writing library : libebml v1.3.0 + libmatroska v1.4.0
Video #1
ID : 1
Format : AVC
Format/Info : Advanced Video Codec
Format profile : High@L4.1
Format settings, CABAC : Yes
Format settings, ReFrames : 4 frames
Codec ID : V_MPEG4/ISO/AVC
Duration : 1h 42mn
Bit rate : 9 770 Kbps
Width : 1 920 pixels
Height : 1 080 pixels
Display aspect ratio : 1.85:1
Frame rate : 23.976 fps
Color space : YUV
Chroma subsampling : 4:2:0
Bit depth : 8 bits
Scan type : Progressive
Bits/(Pixel*Frame) : 0.204
Stream size : 6.86 GiB (87%)
Title : Release by Alex260680
Writing library : x264 core 129 r2230 1cffe9f
Encoding settings : cabac=1 / ref=4 / deblock=1:0:0 / analyse=0x3:0x113 / me=umh / subme=10 / psy=1 / psy_rd=1.10:0.00 / mixed_ref=1 / me_range=32 / chroma_me=1 / trellis=2 / 8x8dct=1 / cqm=0 / deadzone=21,11 / fast_pskip=0 / chroma_qp_offset=-2 / threads=12 / lookahead_threads=2 / sliced_threads=0 / nr=0 / decimate=0 / interlaced=0 / bluray_compat=0 / constrained_intra=0 / bframes=5 / b_pyramid=2 / b_adapt=2 / b_bias=0 / direct=3 / weightb=1 / open_gop=0 / weightp=2 / keyint=240 / keyint_min=23 / scenecut=40 / intra_refresh=0 / rc=2pass / mbtree=0 / bitrate=9770 / ratetol=1.0 / qcomp=0.60 / qpmin=0 / qpmax=69 / qpstep=4 / cplxblur=20.0 / qblur=0.5 / ip_ratio=1.40 / pb_ratio=1.30 / aq=1:0.80
Language : English
Default : Yes
Forced : No
Audio #2
ID : 2
Format : AC-3
Format/Info : Audio Coding 3
Mode extension : CM (complete main)
Format settings, Endianness : Big
Codec ID : A_AC3
Duration : 1h 42mn
Bit rate mode : Constant
Bit rate : 384 Kbps
Channel(s) : 6 channels
Channel positions : Front: L C R, Side: L R, LFE
Sampling rate : 48.0 KHz
Bit depth : 16 bits
Compression mode : Lossy
Stream size : 283 MiB (4%)
Title : Rus tilida (MVO)
Language : Russian
Default : Yes
Forced : No
Audio #3
ID : 3
Format : MPEG Audio
Format version : Version 1
Format profile : Layer 3
Mode : Joint stereo
Mode extension : MS Stereo
Codec ID : A_MPEG/L3
Codec ID/Hint : MP3
Duration : 1h 42mn
Bit rate mode : Constant
Bit rate : 128 Kbps
Channel(s) : 2 channels
Sampling rate : 44.1 KHz
Compression mode : Lossy
Stream size : 94.2 MiB (1%)
Title : O`zbek tilida
Writing library : LAME3.98.2
Language : Uzbek
Default : No
Forced : No
Audio #4
ID : 4
Format : AC-3
Format/Info : Audio Coding 3
Mode extension : CM (complete main)
Format settings, Endianness : Big
Codec ID : A_AC3
Duration : 1h 42mn
Bit rate mode : Constant
Bit rate : 192 Kbps
Channel(s) : 2 channels
Channel positions : Front: L R
Sampling rate : 48.0 KHz
Bit depth : 16 bits
Compression mode : Lossy
Stream size : 141 MiB (2%)
Title : Rus tilida MVO (ÎÐÒ)
Language : Russian
Default : No
Forced : No
Audio #5
ID : 5
Format : AC-3
Format/Info : Audio Coding 3
Mode extension : CM (complete main)
Format settings, Endianness : Big
Codec ID : A_AC3
Duration : 1h 42mn
Bit rate mode : Constant
Bit rate : 448 Kbps
Channel(s) : 6 channels
Channel positions : Front: L C R, Side: L R, LFE
Sampling rate : 48.0 KHz
Bit depth : 16 bits
Compression mode : Lossy
Stream size : 330 MiB (4%)
Title : Ingliz tilidaOriginal
Language : English
Default : No
Forced : No
Text #6
ID : 6
Format : UTF-8
Codec ID : S_TEXT/UTF8
Codec ID/Info : UTF-8 Plain Text
Language : Russian
Default : No
Forced : No
Text #7
ID : 7
Format : UTF-8
Codec ID : S_TEXT/UTF8
Codec ID/Info : UTF-8 Plain Text
Language : English
Default : No
Forced : No

Uyda Yolg'iz 2 / Один дома 2/ Home Alone 2

Chiqqan yili: 1992
Davlat: AQSH
Janr: Komediya, oilaviy,
Davomiyligi: 02:00:01
Tarjima: Professional (Ko'p ovozli kadr ortidan) (O'zbek tilida)
Tarjima 2: Professional (dublyaj qilingan) (Rus tilida)
Tarjima 3: Professional (dublyaj qilingan) (Eng tilida)
Subtitrlar: ruscha (to'liq), inglizcha (Full), inglizcha
Rejissyor: Chris Kolumb
Rollarda:
Macaulay Culkin-(Kevin McCallister), Joe Peshi-(Harry Lime), Daniel Stern-(Marv Merchants), Ketrin O'Hara-(Kate McCallister), Jon Heard-(Peter McCallister), Roberts Blossom-(Old Man Marley), Jerri bamman-(Uncle Frank), Devin shitirlashi-(Buzz McCallister), Jon shirinlik-(Gus Polinski), Kiran Culkin-(Fuller McCallister), Angela Goethals-(Linnie McCallister), Hillary Wolf-(Megan McCallister), Larry Hankin-(Officer Balzak), Michael C. Maronna-(Jeff McCallister), Ralph Foody-(Johnny - Gangster #1)...
Tavsif:Amerikaning eng kichik qahramoni Nyu-Yorkda katta qiziqish uyg'otdi! Kevin Makkallister qaytib keldi! Endi esa u uyda emas, balki Nyu-Yorkda, Big Appleni o'z o'yin maydonchasiga aylantirish uchun etarli pul va kredit kartalari bor.
Ammo, har doimgidek, Kevin uzoq vaqt yolg'iz qolishni istamadi: uning sobiq do'stlari - Garri va Marv firibgarlari - ular Kevinning harakatlari bilan qamoqxonadan qochib ketishgan. Kevinningdan Yolg'onchi gangsterlar uchun yangi tuzoq va tuzoqlarni kutishmoqda.
Videoning sifati: BDRip-AVC
Video format: MKV
Video: AVC, (1920x1080) 1893 kbps, 23,976 fps,8 358 Kbps
Audio 1: MP3 / 48Hz stereo 2.0ch / 192 kbps / O'zbek tilida
Audio 2: AC-3 / 48Hz stereo 5.1ch / 448 Kbps / Rus tilida
Audio 3: AC-3 / 48Hz stereo 5.1ch / 448 kbps / Eng tilida

Media Info

D:\HD\Home.Alone.Dilogy.1990-1992.BDRip.1080p\Home Alone.2.1992.BDRip.1080p.mkv
General
Unique ID : 195364299209971715627187083365859404297 (0x92F9CB9EC3296266BCF5F008133B2A09)
Complete name : D:\HD\Home.Alone.Dilogy.1990-1992.BDRip.1080p\Home Alone.2.1992.BDRip.1080p.mkv
Format : Matroska
Format version : Version 4 / Version 2
File size : 7.86 GiB
Duration : 2h 0mn
Overall bit rate : 9 377 Kbps
Movie name : Îäèí äîìà 2 (1992) BDRip (1080p)
Encoded date : UTC 2013-12-23 22:12:23
Writing application : mkvmerge v6.2.0 ('Promised Land') built on Apr 28 2013 12:22:01
Writing library : libebml v1.3.0 + libmatroska v1.4.0
Video #1
ID : 1
Format : AVC
Format/Info : Advanced Video Codec
Format profile : High@L4.1
Format settings, CABAC : Yes
Format settings, ReFrames : 4 frames
Codec ID : V_MPEG4/ISO/AVC
Duration : 2h 0mn
Bit rate : 8 358 Kbps
Width : 1 920 pixels
Height : 1 080 pixels
Display aspect ratio : 1.85:1
Frame rate : 23.976 fps
Color space : YUV
Chroma subsampling : 4:2:0
Bit depth : 8 bits
Scan type : Progressive
Bits/(Pixel*Frame) : 0.175
Stream size : 6.85 GiB (87%)
Title : Release by Alex260680
Writing library : x264 core 129 r2230 1cffe9f
Encoding settings : cabac=1 / ref=4 / deblock=1:-3:-3 / analyse=0x3:0x113 / me=umh / subme=10 / psy=1 / psy_rd=1.00:0.10 / mixed_ref=1 / me_range=32 / chroma_me=1 / trellis=2 / 8x8dct=1 / cqm=0 / deadzone=21,11 / fast_pskip=0 / chroma_qp_offset=-3 / threads=12 / lookahead_threads=2 / sliced_threads=0 / nr=0 / decimate=0 / interlaced=0 / bluray_compat=0 / constrained_intra=0 / bframes=5 / b_pyramid=2 / b_adapt=2 / b_bias=0 / direct=3 / weightb=1 / open_gop=0 / weightp=2 / keyint=240 / keyint_min=23 / scenecut=40 / intra_refresh=0 / rc=2pass / mbtree=0 / bitrate=8358 / ratetol=1.0 / qcomp=0.60 / qpmin=0 / qpmax=69 / qpstep=4 / cplxblur=20.0 / qblur=0.5 / ip_ratio=1.40 / pb_ratio=1.30 / aq=1:0.70
Language : English
Default : Yes
Forced : No
Audio #2
ID : 2
Format : AC-3
Format/Info : Audio Coding 3
Mode extension : CM (complete main)
Format settings, Endianness : Big
Codec ID : A_AC3
Duration : 2h 0mn
Bit rate mode : Constant
Bit rate : 448 Kbps
Channel(s) : 6 channels
Channel positions : Front: L C R, Side: L R, LFE
Sampling rate : 48.0 KHz
Bit depth : 16 bits
Compression mode : Lossy
Stream size : 385 MiB (5%)
Title : Rus tilida
Language : Russian
Default : No
Forced : No
Audio #3
ID : 3
Format : MPEG Audio
Format version : Version 1
Format profile : Layer 3
Mode : Joint stereo
Mode extension : MS Stereo
Codec ID : A_MPEG/L3
Codec ID/Hint : MP3
Duration : 2h 0mn
Bit rate mode : Constant
Bit rate : 128 Kbps
Channel(s) : 2 channels
Sampling rate : 44.1 KHz
Compression mode : Lossy
Stream size : 110 MiB (1%)
Title : O`zbek tilida
Writing library : LAME3.98.2
Language : Uzbek
Default : No
Forced : No
Audio #4
ID : 4
Format : AC-3
Format/Info : Audio Coding 3
Mode extension : CM (complete main)
Format settings, Endianness : Big
Codec ID : A_AC3
Duration : 2h 0mn
Bit rate mode : Constant
Bit rate : 448 Kbps
Channel(s) : 6 channels
Channel positions : Front: L C R, Side: L R, LFE
Sampling rate : 48.0 KHz
Bit depth : 16 bits
Compression mode : Lossy
Stream size : 385 MiB (5%)
Title : Ingliz tilida, Original
Language : English
Default : No
Forced : No
Text #5
ID : 5
Format : UTF-8
Codec ID : S_TEXT/UTF8
Codec ID/Info : UTF-8 Plain Text
Language : Russian
Default : No
Forced : No
Text #6
ID : 6
Format : UTF-8
Codec ID : S_TEXT/UTF8
Codec ID/Info : UTF-8 Plain Text
Language : English
Default : No
Forced : No
.torrent yuklash

Yuqori tezlikda va bepul ko‘chirish!

Qanday yuklab olinadi? · Torrent nima o‘zi? · Reyting va cheklovlar



So‘ngi marta tahrirlandi: rameo1988 (2018-12-22 11:18), Jami tahrirlangan 2 marta
Profil ShX

rameo1988 ®

Jins:
Yigit
Staj:
5 oy 6 kun
Xabarlar:
61

Qayerdan: Tashkent

Taqiq:

Ovoz Yo'lakchasi Judayam Aniq Va tiniq Yangi Yilni bu filimsiz O'tkazmayadigon Inson bo'lmasa Kerak Mana marxamat

Mavzu yaratish 21-Dek-2018 14:39 (1 daqiqa o‘tgach)

Iqitibos

Profil ShX

Spicger

Jins:
Yigit
Staj:
7 oy 20 kun
Xabarlar:
59

Qayerdan: Chinoz

Taqiq:

Oltin tarqatma kutib qolamiz

Mavzu yaratish 21-Dek-2018 17:52 (3 soat o‘tgach)

Iqitibos

Profil ShX

rameo1988 ®

Jins:
Yigit
Staj:
5 oy 6 kun
Xabarlar:
61

Qayerdan: Tashkent

Taqiq:

Spicger, Raxmat xa Kutamiz

Mavzu yaratish 21-Dek-2018 18:05 (12 daqiqa o‘tgach)

Iqitibos

Profil ShX

Extreme3523

Jins:
Yigit
Staj:
1 yil 8 oy
Xabarlar:
7
Taqiq:

Film uchun raxmat! Razdacha bersez tezro ko'chirib olar edik!

Mavzu yaratish 21-Dek-2018 18:09 (4 daqiqa o‘tgach)

Iqitibos

Profil ShX

L1on

Jins:
Yigit
Staj:
10 oy 4 kun
Xabarlar:
11
Taqiq:

7052Ovoz Yo'lakchasi Judayam Aniq Va tiniq Yangi Yilni bu filimsiz O'tkazmayadigon Inson bo'lmasa Kerak Mana marxamat
Salom qachon razdacha qilasiz?

Mavzu yaratish 21-Dek-2018 18:20 (11 daqiqa o‘tgach)

Iqitibos

Profil ShX

rameo1988 ®

Jins:
Yigit
Staj:
5 oy 6 kun
Xabarlar:
61

Qayerdan: Tashkent

Taqiq:

Extreme3523,

Mavzu yaratish 21-Dek-2018 19:11 (50 daqiqa o‘tgach)

Iqitibos

Profil ShX

Vampire_1987

Jins:
Ko‘rsatilmagan
Staj:
1 yil 8 oy
Xabarlar:
123
Taqiq:

7056
7052Ovoz Yo'lakchasi Judayam Aniq Va tiniq Yangi Yilni bu filimsiz O'tkazmayadigon Inson bo'lmasa Kerak Mana marxamat
Salom qachon razdacha qilasiz?
Xa ) Men Xam Qoshilaman Shu So'zlarga Ba Boshqa Filimlar Ham Bor

Mavzu yaratish 22-Dek-2018 08:45 (13 soat o‘tgach)

Iqitibos

Profil ShX

rameo1988 ®

Jins:
Yigit
Staj:
5 oy 6 kun
Xabarlar:
61

Qayerdan: Tashkent

Taqiq:

7064
7056
7052Ovoz Yo'lakchasi Judayam Aniq Va tiniq Yangi Yilni bu filimsiz O'tkazmayadigon Inson bo'lmasa Kerak Mana marxamat
Salom qachon razdacha qilasiz?
Xa ) Men Xam Qoshilaman Shu So'zlarga Ba Boshqa Filimlar Ham Bor
Bowqa filimlar baribir bu filmdakamas manimcha bu baribir eski bolalikni eslatadi 7 yowdan 70yowgacha qaytta qayta koraveriwadi tog'rimi )))

Mavzu yaratish 22-Dek-2018 09:47 (1 soat 1 daqiqa o‘tgach)

Iqitibos

Profil ShX

Lock

Jins:
Yigit
Staj:
7 oy 10 kun
Xabarlar:
39

Qayerdan: Namangan

Taqiq:

Mavzu yaratish 22-Dek-2018 10:41 (54 daqiqa o‘tgach)

Iqitibos

Profil ShX

rameo1988 ®

Jins:
Yigit
Staj:
5 oy 6 kun
Xabarlar:
61

Qayerdan: Tashkent

Taqiq:

Lock, raxmat kamchiliklar to'g'irlandi

Mavzu yaratish 22-Dek-2018 11:00 (19 daqiqa o‘tgach)

Iqitibos

Profil ShX

samuray

Jins:
Yigit
Staj:
8 oy 1 kun
Xabarlar:
2

Qayerdan: Tashkent

Taqiq:

tezlik beringlar kim tortgan bo'lsa tarqatinglar

Mavzu yaratish 28-Dek-2018 20:39 (6 kun o‘tgach)

Iqitibos

Profil ShX

Mura_oka

Jins:
Yigit
Staj:
1 yil 1 oy
Xabarlar:
1
Taqiq:

skachat qilmepti

Mavzu yaratish 27-Fev-2019 14:03 (1 oy 29 kun o‘tgach)

Iqitibos

Profil ShX
Xabarlarni ko‘rsatish:    

Hozirgi vaqt: 19-May 17:01

Vaqtlar farqi: UTC + 5



Siz mavzu yaratishingiz mumkin emas
Siz xabarlarga javob qaytarishingiz mumkin emas
Siz o‘z xabarlaringizni tahrirlashingiz mumkin emas
Siz o‘z xabarlaringizni o‘chirishingiz mumkin emas
Siz so‘rovlarda ovoz berishingiz mumkin emas
Siz xabalarga fayllarni biriktirishingiz mumkin emas
Siz fayllarni ko‘chirishingiz mumkin emas