˂
˃
Tarqatmalar statistikasi
Ko‘chiraman: [ 2 ]
Ko‘chirmoqdaman: [ 11 ]
Ko‘chirib bo‘ldim: [ 83 ]
 
     
 
 

N.U.R.I.K.B.E.K ®

Jins:
Yigit
Staj:
1 yil 6 oy
Xabarlar:
466

Qayerdan: Jizzax. Paxtakor

Taqiq:

-Josus 3.0 | Агент Джонни Инглиш 3.0 | Johnny English Strikes Again
--
Chiqqan yili: 2018
Davlat: Fransiya, Buyuk Britaniya, AQSH
Janr: Jangari, Sarguzasht, Kulguli.
Davomiyligi: 01.28.33
Tarjima: Professional
Tarjima #1: Professional Yoshlar O'zbek Tilida
Tarjima #2: Professional MY5TV O'zbek Tilida--Rejissyor: Devid Kerr.--Rollarda:

Emma Tompson, Olga Kurilenko, Rouen Atkinson, Jeyk Lesi, Ben Miller, Miranda Xennessi, Adam Jeyms, Pippa Bennett Uorner, Irena Tishina, Jeyms Ils.--Tavsif:

Majestekning maxfiy xizmatining barcha xodimlari birdaniga ishdan bo'shatildi. Ingliz uslubi va o'limli go'zalliklarning sevimli namunasi; umidsiz holatlar shohi va raqamli dunyoda analog an'analarni saqlovchi, agent Johnny English ingliz razvedkasining og'rig'i va mag'rurligi. Bu odamni silkitadigan biror narsa bor.-Videoning sifati: HDRip 720p 10bit
Video format: MKV--Video: HEVC, 1280x536 23.976 fps 975 kb/s
Audio: MP3 48000Hz stereo 128kbps O'zbek Tili
Audio: MP3 48000Hz stereo 128kbps O'zbek Tili--

Media Info

General
Format : Matroska
Format version : Version 4 / Version 2
File size : 781 MiB
Duration : 1 h 28 min
Overall bit rate : 1 233 kb/s
Movie name : Johnny.English.Strikes.Again.2018.BluRay HEVC 720p 10bit ENG.mkv
Encoded date : UTC 2018-12-22 17:02:51
Writing application : mkvmerge v15.0.0 ('Duel with the Devil') 64-bit
Writing library : libebml v1.3.5 + libmatroska v1.4.5
Video
ID : 1
Format : HEVC
Format/Info : High Efficiency Video Coding
Format profile : Main 10@L3.1@Main
Codec ID : V_MPEGH/ISO/HEVC
Duration : 1 h 28 min
Bit rate : 975 kb/s
Width : 1 280 pixels
Height : 536 pixels
Display aspect ratio : 2.40:1
Frame rate mode : Constant
Frame rate : 23.976 (24000/1001) FPS
Color space : YUV
Chroma subsampling : 4:2:0
Bit depth : 10 bits
Bits/(Pixel*Frame) : 0.059
Stream size : 617 MiB (79%)
Default : Yes
Forced : No
Audio #1
ID : 2
Format : MPEG Audio
Format version : Version 1
Format profile : Layer 3
Mode : Joint stereo
Codec ID : A_MPEG/L3
Codec ID/Hint : MP3
Duration : 1 h 28 min
Bit rate mode : Constant
Bit rate : 128 kb/s
Channel(s) : 2 channels
Sampling rate : 48.0 kHz
Frame rate : 41.667 FPS (1152 SPF)
Compression mode : Lossy
Stream size : 81.1 MiB (10%)
Title : O'zbek Tili / MY5TV
Writing library : LAME3.99.5
Language : Uzbek
Default : Yes
Forced : No
Audio #2
ID : 3
Format : MPEG Audio
Format version : Version 1
Format profile : Layer 3
Mode : Joint stereo
Codec ID : A_MPEG/L3
Codec ID/Hint : MP3
Duration : 1 h 28 min
Bit rate mode : Constant
Bit rate : 128 kb/s
Channel(s) : 2 channels
Sampling rate : 48.0 kHz
Frame rate : 41.667 FPS (1152 SPF)
Compression mode : Lossy
Stream size : 81.1 MiB (10%)
Title : O'zbek Tili / Yoshlar
Writing library : LAME3.99.5
Language : Uzbek
Default : No
Forced : No
LAVHALAR
.torrent yuklash

Yuqori tezlikda va bepul ko‘chirish!

Qanday yuklab olinadi? · Torrent nima o‘zi? · Reyting va cheklovlar



So‘ngi marta tahrirlandi: N.U.R.I.K.B.E.K (2018-12-22 23:59), Jami tahrirlangan 2 marta
Profil ShX

AxeL

Jins:
Yigit
Staj:
1 yil 2 oy
Xabarlar:
741

Qayerdan: Gronland, Norway

Taqiq:

Bitta skrinshotni olib tashladim, bir nimalar ko'rinib qolibdi...

Mavzu yaratish 22-Dek-2018 23:46 (41 daqiqa o‘tgach)

Iqitibos

Profil ShX

Azizbek_03

Jins:
Ko‘rsatilmagan
Staj:
11 oy 5 kun
Xabarlar:
7
Taqiq:

Davlat degan joyida AQSH so'zi AQS bo'lib qolibdi

Mavzu yaratish 22-Dek-2018 23:49 (3 daqiqa o‘tgach)

Iqitibos

Profil ShX

N.U.R.I.K.B.E.K ®

Jins:
Yigit
Staj:
1 yil 6 oy
Xabarlar:
466

Qayerdan: Jizzax. Paxtakor

Taqiq:

AxeL, trafigiz bormi perevod qivoring menda qomagandi

Mavzu yaratish 23-Dek-2018 00:01 (11 daqiqa o‘tgach)

Iqitibos

Profil ShX

AxeL

Jins:
Yigit
Staj:
1 yil 2 oy
Xabarlar:
741

Qayerdan: Gronland, Norway

Taqiq:

Rouen Atkinson ham ancha qarib qolibdi, hatti harakatlari ham ancha pasaygan, avvallar pozitiv judayam quvnoq edilar

Mavzu yaratish 23-Dek-2018 00:22 (21 daqiqa o‘tgach)

Iqitibos

Profil ShX

Xamdam

Jins:
Ko‘rsatilmagan
Staj:
1 yil 5 oy
Xabarlar:
1
Taqiq:

Shucha videolarni skachatga bosib qo'yipman lekin birortasidaxam razdacha yo'q
endi esa bu gap
--------------------------------------------------------------------------------------------------------------------------------------------------
Reytingiz 0 endilikda sizga yangi torrentlarni ko‘chirishga yo‘l qo‘ymaydi.
Reytingni ko‘tarish uchun avval ko‘chirganlaringizni tarqatishingiz, yoki yangi tarqatma tashkillashtirishingiz mumkin.

--------------------------------------------------------------------------------------------------------------------------------------------------
bir nechtasini ko'chira oldim ularga razdacha berip qo'yipman nima endi boshqa ko'chirib ololmaymanmi?

Mavzu yaratish 23-Dek-2018 17:47 (17 soat o‘tgach)

Iqitibos

Profil ShX

N.U.R.I.K.B.E.K ®

Jins:
Yigit
Staj:
1 yil 6 oy
Xabarlar:
466

Qayerdan: Jizzax. Paxtakor

Taqiq:

Xamdam, razdachada turing kõtarilib qoladi

Mavzu yaratish 23-Dek-2018 18:15 (28 daqiqa o‘tgach)

Iqitibos

Profil ShX

rameo1988

Jins:
Yigit
Staj:
5 oy 6 kun
Xabarlar:
61

Qayerdan: Tashkent

Taqiq:

Xamdam, salom men reg: o'tkanimga 10kun bo'ldi taxminan 7kun oldin zizdaka momola bn asabim buzulganidi mana xozir reytingim 2.77 reliz qo'yin va tarqating faol bo"lin juda tez ko'tariladi

Mavzu yaratish 23-Dek-2018 23:39 (5 soat o‘tgach)

Iqitibos

Profil ShX

azizbek

Jins:
Yigit
Staj:
1 yil 6 oy
Xabarlar:
166

Qayerdan: Surxondaryo

Taqiq:

Xamdam, ko'chirgan narsani 3 dan birini tarqatish kerak. Bu saytda hech qanday kino yo'q. Hammasi siz kabi foydalanuvchilarning kompyuterida. teredo o'rnatib tarqatishda turing, bal toplab olasiz, uni mb ga almashtirasiz. yangi reliz qilsez undanda yaxshi bo'ladi. unutmang 1Gb tarqatsez 3Gb ko'chirasiz

Mavzu yaratish 23-Dek-2018 23:54 (15 daqiqa o‘tgach)

Iqitibos

Profil ShX

Burxonjon

Jins:
Ko‘rsatilmagan
Staj:
3 oy 26 kun
Xabarlar:
1
Taqiq:

Man yaNGIMAN MAN HAM KOCJIRA OLAMANMI

Mavzu yaratish 23-Yan-2019 20:31 (30 kun o‘tgach)

Iqitibos

Profil ShX

N.U.R.I.K.B.E.K ®

Jins:
Yigit
Staj:
1 yil 6 oy
Xabarlar:
466

Qayerdan: Jizzax. Paxtakor

Taqiq:

Burxonjon, xa bemalol kõchiravering

Mavzu yaratish 23-Yan-2019 20:39 (8 daqiqa o‘tgach)

Iqitibos

Profil ShX
Xabarlarni ko‘rsatish:    

Hozirgi vaqt: 19-May 16:25

Vaqtlar farqi: UTC + 5



Siz mavzu yaratishingiz mumkin emas
Siz xabarlarga javob qaytarishingiz mumkin emas
Siz o‘z xabarlaringizni tahrirlashingiz mumkin emas
Siz o‘z xabarlaringizni o‘chirishingiz mumkin emas
Siz so‘rovlarda ovoz berishingiz mumkin emas
Siz xabalarga fayllarni biriktirishingiz mumkin emas
Siz fayllarni ko‘chirishingiz mumkin emas