˂
˃
Tarqatmalar statistikasi
Ko‘chiraman: [ 1 ]
Ko‘chirib bo‘ldim: [ 3 ]
 
     
 
 

Z_alone ®

Jins:
Ko‘rsatilmagan
Staj:
6 oy 10 kun
Xabarlar:
4
Taqiq:

Jonni Inglish 3 | Агент Джонни Инглиш 3.0 | Johnny English Strikes Again
Chiqqan yili: 2018
Davlat: Buyuk Britaniya, Fransiya
Janr: kulguli, jangari
Davomiyligi: 01:28:33
Tarjima: Professional (dublyaj qilingan) O'zbek tilida
Tarjima 2: Professional (dublyaj qilingan) Ingliz tilida
Rejissyor: Devid Kerr
Rollarda: Rowan Atkinson - maxsus agent Jonni Inglish, Olga Kurylenko - Ofelia Pulyaev, Ben Miller - Angus Baf, Emma Tompson - Britaniya bosh vaziri, Jake Lacy - Jeyson Volta, Miranda Hennessy - Tara, Devid Momeni - Fabian, Tunchay Gunes - Ted, Nik Owenford - Avstraliyalik yordamchi, Juniti Kajiok - Yaponiyalik diplomat
Tavsif: Majestekning maxfiy xizmatining barcha xodimlari birdaniga ishdan bo'shatilganda, o'yinga zaxiradagi o'yinchilar o'ynaydi. Ingliz uslubi va o'limli go'zalliklarning sevimli namunasi; umidsiz holatlar shohi va raqamli dunyoda analog an'analarni saqlovchi, agent Johnny English ingliz razvedkasining og'rig'i va mag'rurligi. Bu odamni silkitadigan biror narsa bor va u boladek emas.
Videoning sifati: BDRip
Video format: MKV
Video: MPEG4 Video (H264) 1920x804 23.976fps 11.5 Mb/s
Audio: ac3, 48000 Hz, stereo, 256 kb/s O'zbek tilida
Audio 2: dts, 48000 Hz, 5.1, 1 509 kb/s Ingliz tilida
Subtitrlar: Ingliz tilida

Media Info

General
Unique ID : 282457557438877899723192970383378197395 (0xD47F58C729FB0519E8A0A235D9B9AB93)
Complete name : D:\Dda\Новая папка\Johnny.English.Strikes.Again.2018.1080p.BDRip.Uzb.Eng.mkv
Format : Matroska
Format version : Version 4
File size : 8.21 GiB
Duration : 1 h 28 min
Overall bit rate : 13.3 Mb/s
Movie name : Johnny.English.Strikes.Again.2018.1080p.BluRay.x264.DTS-FGT
Encoded date : UTC 2018-12-22 05:38:33
Writing application : mkvmerge v26.0.0 ('In The Game') 64-bit
Writing library : libebml v1.3.6 + libmatroska v1.4.9
Video
ID : 1
Format : AVC
Format/Info : Advanced Video Codec
Format profile : High@L4.1
Format settings : CABAC / 4 Ref Frames
Format settings, CABAC : Yes
Format settings, ReFrames : 4 frames
Codec ID : V_MPEG4/ISO/AVC
Duration : 1 h 28 min
Bit rate : 11.5 Mb/s
Width : 1 920 pixels
Height : 804 pixels
Display aspect ratio : 2.40:1
Frame rate mode : Constant
Frame rate : 23.976 (24000/1001) FPS
Color space : YUV
Chroma subsampling : 4:2:0
Bit depth : 8 bits
Scan type : Progressive
Bits/(Pixel*Frame) : 0.311
Stream size : 7.11 GiB (87%)
Title : Johnny.English.Strikes.Again.2018.1080p.BluRay.x264.DTS-FGT
Writing library : x264 core 148 r2795M aaa9aa8
Encoding settings : cabac=1 / ref=4 / deblock=1:-2:-2 / analyse=0x3:0x113 / me=umh / subme=9 / psy=1 / psy_rd=1.00:0.15 / mixed_ref=1 / me_range=16 / chroma_me=1 / trellis=2 / 8x8dct=1 / cqm=0 / deadzone=21,11 / fast_pskip=1 / chroma_qp_offset=-3 / threads=24 / lookahead_threads=3 / sliced_threads=0 / nr=0 / decimate=1 / interlaced=0 / bluray_compat=0 / constrained_intra=0 / bframes=3 / b_pyramid=2 / b_adapt=1 / b_bias=0 / direct=3 / weightb=1 / open_gop=0 / weightp=2 / keyint=250 / keyint_min=25 / scenecut=40 / intra_refresh=0 / rc_lookahead=50 / rc=2pass / mbtree=1 / bitrate=11500 / ratetol=1.0 / qcomp=0.60 / qpmin=0 / qpmax=69 / qpstep=4 / cplxblur=20.0 / qblur=0.5 / vbv_maxrate=31250 / vbv_bufsize=31250 / nal_hrd=none / filler=0 / ip_ratio=1.40 / aq=1:1.00
Language : English
Default : Yes
Forced : No
Audio #1
ID : 2
Format : AC-3
Format/Info : Audio Coding 3
Commercial name : Dolby Digital
Codec ID : A_AC3
Duration : 1 h 28 min
Bit rate mode : Constant
Bit rate : 256 kb/s
Channel(s) : 2 channels
Channel layout : L R
Sampling rate : 48.0 kHz
Frame rate : 31.250 FPS (1536 SPF)
Bit depth : 16 bits
Compression mode : Lossy
Stream size : 162 MiB (2%)
Language : Uzbek
Service kind : Complete Main
Default : Yes
Forced : No
Audio #2
ID : 3
Format : DTS
Format/Info : Digital Theater Systems
Codec ID : A_DTS
Duration : 1 h 28 min
Bit rate mode : Constant
Bit rate : 1 509 kb/s
Channel(s) : 6 channels
Channel layout : C L R Ls Rs LFE
Sampling rate : 48.0 kHz
Frame rate : 93.750 FPS (512 SPF)
Bit depth : 24 bits
Compression mode : Lossy
Stream size : 956 MiB (11%)
Language : English
Default : No
Forced : No
Text
ID : 4
Format : UTF-8
Codec ID : S_TEXT/UTF8
Codec ID/Info : UTF-8 Plain Text
Duration : 1 h 22 min
Bit rate : 55 b/s
Count of elements : 1017
Stream size : 33.7 KiB (0%)
Language : English
Default : No
Forced : No
Menu
00:00:00.000 : :Chapter 01
00:05:06.681 : :Chapter 02
00:09:05.378 : :Chapter 03
00:13:14.794 : :Chapter 04
00:19:22.369 : :Chapter 05
00:21:31.832 : :Chapter 06
00:26:41.975 : :Chapter 07
00:32:31.240 : :Chapter 08
00:34:48.085 : :Chapter 09
00:39:49.428 : :Chapter 10
00:45:49.121 : :Chapter 11
00:51:22.204 : :Chapter 12
00:54:31.851 : :Chapter 13
00:58:58.201 : :Chapter 14
01:02:58.441 : :Chapter 15
01:08:21.597 : :Chapter 16
01:11:40.963 : :Chapter 17
01:15:03.415 : :Chapter 18
01:20:54.808 : :Chapter 19
01:23:52.527 : :Chapter 20

Lavhalar

.torrent yuklash

Yuqori tezlikda va bepul ko‘chirish!

Qanday yuklab olinadi? · Torrent nima o‘zi? · Reyting va cheklovlar



So‘ngi marta tahrirlandi: Z_alone (2018-12-26 00:42), Jami tahrirlangan 3 marta
Profil ShX

Abbos99

Jins:
Ko‘rsatilmagan
Staj:
4 oy 26 kun
Xabarlar:
1
Taqiq:

Nega ko`chirmayapti

Mavzu yaratish 23-Dek-2018 22:17 (9 soat o‘tgach)

Iqitibos

Profil ShX

AxeL

Jins:
Yigit
Staj:
1 yil 2 oy
Xabarlar:
741

Qayerdan: Gronland, Norway

Taqiq:

Ishlarizga omad, zo'r chiqibdi, ovozi yahshi tushgan dib umid qilamiz

Mavzu yaratish 23-Dek-2018 22:49 (31 daqiqa o‘tgach)

Iqitibos

Profil ShX
Xabarlarni ko‘rsatish:    

Hozirgi vaqt: 19-May 15:16

Vaqtlar farqi: UTC + 5



Siz mavzu yaratishingiz mumkin emas
Siz xabarlarga javob qaytarishingiz mumkin emas
Siz o‘z xabarlaringizni tahrirlashingiz mumkin emas
Siz o‘z xabarlaringizni o‘chirishingiz mumkin emas
Siz so‘rovlarda ovoz berishingiz mumkin emas
Siz xabalarga fayllarni biriktirishingiz mumkin emas
Siz fayllarni ko‘chirishingiz mumkin emas