˂
˃
Tarqatmalar statistikasi
Ko‘chirmoqdaman: [ 1 ]
 
     
 
 

logan7272 ®

Jins:
Yigit
Staj:
1 yil 1 oy
Xabarlar:
67

Qayerdan: Namangan

Taqiq:

Aquaman| Аквамен
"Ocean is calling"
- Chiqqan yili: 2018
Davlat: AQSH Avstraliya
Janri: Sarguzashtlar, Jangari, Fantastika, Fantaziya.
Davomiyligi: 02:11:32
Tarjima: Dublyaj qilingan tovush TS (Eng tilida)
Subtitrlar: Xitoycha o`zida-Rejissiyor: James van-Rollarda:Jason Momoa, Amber Heard, Nicole Kidman, Dolph Lundgren, Patrick Wilson, Willem Dafoe, Temuera Morrison, Ludi Lin, Michael Beach, Yahya Abdul-Marin II-Film haqida: Arthur is the son of the lighthouse worker and the woman of Atlanna. Even as a boy, the boy showed great strength and speed. In adolescence, these figures only increased. The guy was gaining power, and he also learned to breathe and talk under water. Under the water, Arthur feels calm and calm, talking to the fish. When his mother died, she told her son a very important secret. It turns out that in life she was the real queen of Atlantis. Once she promised that one day her son would become the heir to her throne and ruler of the seas. The father gave his son a brilliant education and at the same time taught him to manage the powers and abilities transferred by the mother. Ultimately, this is what helped Arthur to become a superhero named "Aquaman"-Sifat: HDTVRip720
Format:mkv
Video: AVC, 1280x568, ~3000 kbps, 25 fps
Audio: AAC LC, 48 kHz, 192 kbps, 2 ch

Skrinshotlar

Media Info

General
Unique ID : 5676621955522422580677964530461950869 (0x445471226A100DA502AE30F3CCFC395)
Complete name : C:\Users\logan\Downloads\Programs\Aquaman 2018 720p PROPER HD-TC HQ X264-SeeHD.mkv
Format : Matroska
Format version : Version 4 / Version 2
File size : 2.93 GiB
Duration : 2 h 11 min
Overall bit rate mode : Variable
Overall bit rate : 3 186 kb/s
Encoded date : UTC 2018-12-18 13:13:48
Writing application : mkvmerge v22.0.0 ('At The End Of The World') 64-bit
Writing library : libebml v1.3.5 + libmatroska v1.4.8
Video
ID : 1
Format : AVC
Format/Info : Advanced Video Codec
Format profile : High@L4.2
Format settings : CABAC / 6 Ref Frames
Format settings, CABAC : Yes
Format settings, ReFrames : 6 frames
Codec ID : V_MPEG4/ISO/AVC
Duration : 2 h 11 min
Bit rate mode : Variable
Bit rate : 3 000 kb/s
Maximum bit rate : 62.5 Mb/s
Width : 1 280 pixels
Height : 568 pixels
Display aspect ratio : 2.25:1
Frame rate mode : Constant
Frame rate : 25.000 FPS
Color space : YUV
Chroma subsampling : 4:2:0
Bit depth : 8 bits
Scan type : Progressive
Bits/(Pixel*Frame) : 0.165
Stream size : 2.75 GiB (94%)
Writing library : x264 core 148 r2638 7599210
Encoding settings : cabac=1 / ref=7 / deblock=1:-1:-1 / analyse=0x3:0x133 / me=umh / subme=9 / psy=1 / psy_rd=1.00:0.15 / mixed_ref=1 / me_range=18 / chroma_me=1 / trellis=2 / 8x8dct=1 / cqm=0 / deadzone=21,11 / fast_pskip=0 / chroma_qp_offset=-3 / threads=16 / lookahead_threads=1 / sliced_threads=0 / slices=4 / nr=0 / decimate=1 / interlaced=0 / bluray_compat=0 / constrained_intra=0 / bframes=3 / b_pyramid=1 / b_adapt=2 / b_bias=0 / direct=3 / weightb=1 / open_gop=0 / weightp=0 / keyint=250 / keyint_min=25 / scenecut=40 / intra_refresh=0 / rc_lookahead=40 / rc=abr / mbtree=1 / bitrate=3000 / ratetol=1.0 / qcomp=0.60 / qpmin=10 / qpmax=51 / qpstep=4 / vbv_maxrate=62500 / vbv_bufsize=78125 / nal_hrd=vbr / filler=0 / ip_ratio=1.40 / aq=1:1.00
Default : Yes
Forced : No
Color range : Full
Color primaries : BT.709
Transfer characteristics : BT.709
Matrix coefficients : BT.709
Audio
ID : 2
Format : AAC
Format/Info : Advanced Audio Codec
Format profile : LC
Codec ID : A_AAC-2
Duration : 2 h 11 min
Bit rate : 192 kb/s
Channel(s) : 2 channels
Channel positions : Front: L R
Sampling rate : 48.0 kHz
Frame rate : 46.875 FPS (1024 SPF)
Compression mode : Lossy
Stream size : 181 MiB (6%)
Language : English
Default : Yes
Forced : No
.torrent yuklash

Yuqori tezlikda va bepul ko‘chirish!

Qanday yuklab olinadi? · Torrent nima o‘zi? · Reyting va cheklovlar



So‘ngi marta tahrirlandi: logan7272 (2018-12-29 15:13), Jami tahrirlangan 1 marta
Profil ShX

XVII

Jins:
Yigit
Staj:
1 yil 1 oy
Xabarlar:
136

Qayerdan: Surkhandarya

Taqiq:

logan7272, постерни размерини кичрайтиринг камида 600х600 мп булиши керак.

Mavzu yaratish 28-Dek-2018 13:50 (21 soat o‘tgach)

Iqitibos

Profil ShX
Xabarlarni ko‘rsatish:    

Hozirgi vaqt: 19-May 15:46

Vaqtlar farqi: UTC + 5



Siz mavzu yaratishingiz mumkin emas
Siz xabarlarga javob qaytarishingiz mumkin emas
Siz o‘z xabarlaringizni tahrirlashingiz mumkin emas
Siz o‘z xabarlaringizni o‘chirishingiz mumkin emas
Siz so‘rovlarda ovoz berishingiz mumkin emas
Siz xabalarga fayllarni biriktirishingiz mumkin emas
Siz fayllarni ko‘chirishingiz mumkin emas