˂
˃
Tarqatmalar statistikasi
Ko‘chirmoqdaman: [ 7 ]
Ko‘chirib bo‘ldim: [ 36 ]
 
     
 
 

azizbek ®

Jins:
Yigit
Staj:
1 yil 6 oy
Xabarlar:
166

Qayerdan: Surxondaryo

Taqiq:

-Lukas / Лукас / Lukas- Chiqqan yili: 2018
Davlat: Fransiya, Belgiya
Janr: jangari, jinoyat
Davomiyligi: 01:34:35
Tarjima: Professional (MY5 telekanali) o'zbek tilida-Rejissyor: Juliyen Leklerk / Julien Leclerc
Rollarda: Jan-Klod Van Dam, Sveva Alviti, Sami Buazila, Sam Lauvik, Karis, Kevin Janssens, Alisa Verset, Karlos Shram, Dimitri Tivid, Lauren D'Ilia-Tavsif: Qizingiz uchun nimaga tayyorsiz? Qahramon bu savolga javob berishga majbur bo'ladi, politsiya, mafiya va Interpol bilan yuzma-yuz duch keladi.-Videoning sifati: BDRip
Video format: MP4-Video: AVC, 1024x428, 24fps, 1827kbps
Audio: MP3, 48000Hz, 128kbps, stereo, MY5 telekanali, o'zbek tilida

Media Info

General
Complete name : D:\azizbek\kino\uztacker\Lukas.2018.BDRip.AVC.mp4
Format : MPEG-4
Format profile : Base Media
Codec ID : isom (isom/iso2/avc1/mp41)
File size : 1.30 GiB
Duration : 1 h 34 min
Overall bit rate : 1 961 kb/s
Movie name : lukas.2018.BDRip-AVC
Encoded date : UTC 2018-12-22 14:39:32
Tagged date : UTC 2018-12-22 14:39:32
Writing application : Lavf58.19.102
Copyright : uztraker.me-milliy torrent treker
Video
ID : 1
Format : AVC
Format/Info : Advanced Video Codec
Format profile : High@L4.1
Format settings : CABAC / 10 Ref Frames
Format settings, CABAC : Yes
Format settings, ReFrames : 10 frames
Codec ID : avc1
Codec ID/Info : Advanced Video Coding
Duration : 1 h 34 min
Bit rate : 1 827 kb/s
Width : 1 024 pixels
Height : 428 pixels
Display aspect ratio : 2.40:1
Frame rate mode : Variable
Frame rate : 24.000 FPS
Minimum frame rate : 23.634 FPS
Maximum frame rate : 24.390 FPS
Color space : YUV
Chroma subsampling : 4:2:0
Bit depth : 8 bits
Scan type : Progressive
Bits/(Pixel*Frame) : 0.174
Stream size : 1.21 GiB (93%)
Writing library : x264 core 146 r2538 121396c
Encoding settings : cabac=1 / ref=10 / deblock=1:-3:-3 / analyse=0x3:0x113 / me=umh / subme=11 / psy=1 / psy_rd=0.99:0.04 / mixed_ref=1 / me_range=48 / chroma_me=1 / trellis=2 / 8x8dct=1 / cqm=0 / deadzone=21,11 / fast_pskip=1 / chroma_qp_offset=-3 / threads=6 / lookahead_threads=1 / sliced_threads=0 / nr=0 / decimate=1 / interlaced=0 / bluray_compat=0 / constrained_intra=0 / bframes=11 / b_pyramid=2 / b_adapt=2 / b_bias=0 / direct=3 / weightb=1 / open_gop=0 / weightp=2 / keyint=240 / keyint_min=24 / scenecut=40 / intra_refresh=0 / rc_lookahead=40 / rc=2pass / mbtree=0 / bitrate=1827 / ratetol=1.0 / qcomp=0.60 / qpmin=0 / qpmax=69 / qpstep=4 / cplxblur=20.0 / qblur=0.5 / vbv_maxrate=50000 / vbv_bufsize=62500 / nal_hrd=none / filler=0 / ip_ratio=1.40 / pb_ratio=1.30 / aq=1:1.00
Language : English
Encoded date : UTC 2018-12-22 14:39:32
Tagged date : UTC 2018-12-22 14:39:32
Codec configuration box : avcC
Audio
ID : 2
Format : MPEG Audio
Format version : Version 1
Format profile : Layer 3
Format settings : Joint stereo
Codec ID : mp4a-6B
Duration : 1 h 34 min
Bit rate mode : Constant
Bit rate : 128 kb/s
Channel(s) : 2 channels
Sampling rate : 48.0 kHz
Compression mode : Lossy
Stream size : 86.6 MiB (7%)
Language : Russian
Default : Yes
Alternate group : 1
Encoded date : UTC 2018-12-22 14:39:32
Tagged date : UTC 2018-12-22 14:39:32

Treyler - rus tilida(mover.uz)

.torrent yuklash

Yuqori tezlikda va bepul ko‘chirish!

Qanday yuklab olinadi? · Torrent nima o‘zi? · Reyting va cheklovlar

Profil ShX
Xabarlarni ko‘rsatish:    

Hozirgi vaqt: 19-May 16:03

Vaqtlar farqi: UTC + 5



Siz mavzu yaratishingiz mumkin emas
Siz xabarlarga javob qaytarishingiz mumkin emas
Siz o‘z xabarlaringizni tahrirlashingiz mumkin emas
Siz o‘z xabarlaringizni o‘chirishingiz mumkin emas
Siz so‘rovlarda ovoz berishingiz mumkin emas
Siz xabalarga fayllarni biriktirishingiz mumkin emas
Siz fayllarni ko‘chirishingiz mumkin emas