˂
˃
Tarqatmalar statistikasi
Ko‘chirmoqdaman: [ 9 ]
Ko‘chirib bo‘ldim: [ 35 ]
 
     
 
 

azizbek ®

Jins:
Yigit
Staj:
1 yil 6 oy
Xabarlar:
166

Qayerdan: Surxondaryo

Taqiq:

-Jodu saltanati / Фантастические твари и где они обитают / Fantastic Beasts and Where to Find Them- Chiqqan yili: 2016
Davlat: AQSh, Buyuk Britaniya
Janr: hayoliy, sarguzasht, oilaviy
Davomiyligi: 02:14:00
Tarjima: Professional (Yoshlar telekanali) o'zbek tilida-Rejissyor: Devid Yates
Rollarda: Eddi Redman, Ketrin Suvston, Dan Vogler, Alison Sudol, Kolin Farrell, Karmen Edgogo, Ezra Miller, Samanta Morton, Ron Perlman, Jon Voight-Tavsif: Favqulodda sehrli jonzotlarni izlash va o'rganish Nyut Salamanderni Nyu-Yorkka olib keladi. Ehtimol, agar u Yakob nomidan sehrgar (Sexrgarlar Amerikada deb nomlangan), noto'g'ri joyda qoldirgan sehrli chamadon va Nyutning hayoliy hayvonlarini qochib ketmasa, poezd bilan ketishi mumkin edi.-Videoning sifati: BDRip
Video format: MP4-Video: AVC, 1024x426, 23.976fps, 1705kbps
Audio: MP3, 48000Hz, 128kbps, stereo, Yoshlar telekanali, o'zbek tilida

Media Info

General
Complete name : D:\azizbek\kino\uztacker\Fantastic.Beasts.2016.BDRip.AVC.mp4
Format : MPEG-4
Format profile : Base Media
Codec ID : isom (isom/iso2/avc1/mp41)
File size : 1.71 GiB
Duration : 2 h 14 min
Overall bit rate : 1 823 kb/s
Encoded date : UTC 2017-02-25 17:47:48
Tagged date : UTC 2017-02-25 17:47:48
Writing application : Lavf58.19.102
Video
ID : 1
Format : AVC
Format/Info : Advanced Video Codec
Format profile : High@L4.1
Format settings : CABAC / 12 Ref Frames
Format settings, CABAC : Yes
Format settings, ReFrames : 12 frames
Codec ID : avc1
Codec ID/Info : Advanced Video Coding
Duration : 2 h 12 min
Bit rate : 1 705 kb/s
Width : 1 024 pixels
Height : 426 pixels
Display aspect ratio : 2.40:1
Frame rate mode : Variable
Frame rate : 23.976 (24000/1001) FPS
Minimum frame rate : 23.564 FPS
Maximum frame rate : 24.390 FPS
Color space : YUV
Chroma subsampling : 4:2:0
Bit depth : 8 bits
Scan type : Progressive
Bits/(Pixel*Frame) : 0.163
Stream size : 1.58 GiB (93%)
Writing library : x264 core 144 r2525 40bb568
Encoding settings : cabac=1 / ref=12 / deblock=1:-2:-2 / analyse=0x3:0x113 / me=umh / subme=10 / psy=1 / psy_rd=1.04:0.08 / mixed_ref=1 / me_range=32 / chroma_me=1 / trellis=2 / 8x8dct=1 / cqm=0 / deadzone=21,11 / fast_pskip=1 / chroma_qp_offset=-3 / threads=12 / lookahead_threads=3 / sliced_threads=0 / nr=0 / decimate=1 / interlaced=0 / bluray_compat=0 / constrained_intra=0 / bframes=10 / b_pyramid=2 / b_adapt=2 / b_bias=0 / direct=3 / weightb=1 / open_gop=0 / weightp=2 / keyint=240 / keyint_min=23 / scenecut=40 / intra_refresh=0 / rc_lookahead=40 / rc=2pass / mbtree=0 / bitrate=1705 / ratetol=1.0 / qcomp=0.60 / qpmin=0 / qpmax=51 / qpstep=4 / cplxblur=20.0 / qblur=0.5 / vbv_maxrate=50000 / vbv_bufsize=62500 / nal_hrd=none / filler=0 / ip_ratio=1.40 / pb_ratio=1.30 / aq=1:1.00
Language : English
Encoded date : UTC 2017-02-25 17:47:48
Tagged date : UTC 2017-02-25 17:47:48
Color range : Limited
Color primaries : BT.709
Transfer characteristics : BT.709
Matrix coefficients : BT.709
Codec configuration box : avcC
Audio
ID : 2
Format : MPEG Audio
Format version : Version 1
Format profile : Layer 3
Format settings : Joint stereo / MS Stereo
Codec ID : mp4a-6B
Duration : 2 h 14 min
Bit rate mode : Constant
Bit rate : 128 kb/s
Channel(s) : 2 channels
Sampling rate : 48.0 kHz
Compression mode : Lossy
Stream size : 123 MiB (7%)
Language : Russian
Default : Yes
Alternate group : 1
Encoded date : UTC 2017-02-25 17:47:48
Tagged date : UTC 2017-02-25 17:47:48

Treyler - rus tilida(mover.uz)

.torrent yuklash

Yuqori tezlikda va bepul ko‘chirish!

Qanday yuklab olinadi? · Torrent nima o‘zi? · Reyting va cheklovlar

Profil ShX

ShukrulloX

Jins:
Yigit
Staj:
4 oy 29 kun
Xabarlar:
7
Taqiq:

Tavsif udaru, men choy ichmaganimda edi uxlamagan bo'lardim degandek bo'pqopti ))

Mavzu yaratish 20-Yan-2019 07:30 (17 kun o‘tgach)

Iqitibos

Profil ShX
Xabarlarni ko‘rsatish:    

Hozirgi vaqt: 19-May 15:29

Vaqtlar farqi: UTC + 5



Siz mavzu yaratishingiz mumkin emas
Siz xabarlarga javob qaytarishingiz mumkin emas
Siz o‘z xabarlaringizni tahrirlashingiz mumkin emas
Siz o‘z xabarlaringizni o‘chirishingiz mumkin emas
Siz so‘rovlarda ovoz berishingiz mumkin emas
Siz xabalarga fayllarni biriktirishingiz mumkin emas
Siz fayllarni ko‘chirishingiz mumkin emas