˂
˃
Tarqatmalar statistikasi
Ko‘chirmoqdaman: [ 3 ]
Ko‘chirib bo‘ldim: [ 13 ]
 
     
 
 

PrankSter ®

Jins:
Yigit
Staj:
7 oy 12 kun
Xabarlar:
50
Taqiq:

Kichkina Bigfood | Стань легендой! Бигфут Младший | The Son of Bigfoot- Chiqqan yili: 2017
Davlat: Frantsiya, Belgiya
Janr: Kulguli, Sarguzasht
Davomiyligi: 01:32:15-Tarjima: Professional (Ko'p ovozli kadr ortidan) Lion Studio UZB -Rejissyor: Jeremy Degruson, Ben Stassen-Rollarni ovozlashtirganlar: Sinda Adams, Bob Barlen, Kellan Brunker, Joy Kamen, Devid Epshteyn, Kristofer L. Parson, Jo Tomas-Tavsif: Обычный подросток по имени Адам отправляется на поиски своего давно пропавшего отца и попадает в приключение мифических масштабов. Его мир переворачивается вверх дном, когда оказывается, что в нем течет кровь последних легендарных хранителей леса — бигфутов. Теперь ему открыты такие способности как суперскорость, живительное прикосновение и возможность понимать язык животных.-Videoning sifati: WEBRip
Video format: MP4
Video: Mp4, 1231 Кbiт/sek ,1280×720, 30 000 fps
Audio: MP3, 129 Kbps, 44.1 Khz, 2.0

Media Info

*** Общее
Полное имя : D:Mult/0/Download/bigfut.mp4
Формат : MPEG-4
Профиль формата : Base Media
Идентификатор кодека : isom (isom/iso2/avc1/mp41)
Размер файла : 903 Мбайт
Продолжительность : 1 ч. 32 м.
Общий поток : 1368 Кбит/сек
Название фильма : Project 1
Дата записи : 2018-05-19
Программа кодирования : Lavf57.83.100
*** Видео
Идентификатор : 1
Формат : AVC
Формат/Информация : Advanced Video Codec
Профиль формата : High@L3.1
Настройки формата : CABAC / 4 Ref Frames
Параметр CABAC формата : Да
Параметр RefFrames формата : 4 кадра
Идентификатор кодека : avc1
Идентификатор кодека/Информация : Advanced Video Coding
Продолжительность : 1 ч. 32 м.
Битрейт : 1231 Кбит/сек
Ширина : 1280 пикселей
Высота : 720 пикселей
Соотношение сторон : 16:9
Режим частоты кадров : Постоянный
Частота кадров : 30,000 кадров/сек
Цветовое пространство : YUV
Субдискретизация насыщенности : 4:2:0
Битовая глубина : 8 бит
Тип развёртки : Прогрессивная
Бит/(Пиксели*Кадры) : 0.045
Размер потока : 812 Мбайт (90%)
Библиотека кодирования : x264 core 152 r19 ba24899
Настройки программы : cabac=1 / ref=2 / deblock=1:0:0 / analyse=0x3:0x113 / me=hex / subme=6 / psy=1 / psy_rd=1.00:0.00 / mixed_ref=1 / me_range=16 / chroma_me=1 / trellis=1 / 8x8dct=1 / cqm=0 / deadzone=21,11 / fast_pskip=1 / chroma_qp_offset=-2 / threads=3 / lookahead_threads=1 / sliced_threads=0 / nr=0 / decimate=1 / interlaced=0 / bluray_compat=0 / constrained_intra=0 / bframes=3 / b_pyramid=2 / b_adapt=1 / b_bias=0 / direct=1 / weightb=1 / open_gop=0 / weightp=1 / keyint=250 / keyint_min=25 / scenecut=40 / intra_refresh=0 / rc_lookahead=30 / rc=crf / mbtree=1 / crf=24.0 / qcomp=0.60 / qpmin=0 / qpmax=69 / qpstep=4 / ip_ratio=1.40 / aq=1:1.00
Codec configuration box : avcC
*** Аудио
Идентификатор : 2
Формат : AAC LC
Формат/Информация : Advanced Audio Codec Low Complexity
Идентификатор кодека : mp4a-40-2
Продолжительность : 1 ч. 32 м.
Duration_LastFrame : -20 мс.
Вид битрейта : Постоянный
Битрейт : 129 Кбит/сек
Каналы : 2 канала
Channel layout : L R
Частота : 44,1 КГц
Частота кадров : 43,066 кадра/сек (1024 SPF)
Метод сжатия : С потерями
Размер потока : 85,0 Мбайт (9%)
Default : Да
AlternateGroup/String : 1

Lavhalar

.torrent yuklash

Yuqori tezlikda va bepul ko‘chirish!

Qanday yuklab olinadi? · Torrent nima o‘zi? · Reyting va cheklovlar



So‘ngi marta tahrirlandi: PrankSter (2019-01-04 13:42), Jami tahrirlangan 2 marta
Profil ShX

PrankSter ®

Jins:
Yigit
Staj:
7 oy 12 kun
Xabarlar:
50
Taqiq:

Hatolari bolsa aytib yuborsangiz

Mavzu yaratish 04-Yan-2019 13:17 (46 soniya o‘tgach)

Iqitibos

Profil ShX

Prince

Jins:
Yigit
Staj:
10 oy 1 kun
Xabarlar:
19

Qayerdan: Jizzakh CITY

Taqiq:

Lion studio qaysi kanalniki?

Mavzu yaratish 04-Yan-2019 18:12 (4 soat o‘tgach)

Iqitibos

Profil ShX

PrankSter ®

Jins:
Yigit
Staj:
7 oy 12 kun
Xabarlar:
50
Taqiq:

7162Lion studio qaysi kanalniki?
Hususiy studiya manimcha

Mavzu yaratish 04-Yan-2019 18:18 (6 daqiqa o‘tgach)

Iqitibos

Profil ShX

Fazo_Media

Jins:
Yigit
Staj:
4 oy 15 kun
Xabarlar:
9

Qayerdan: Namangan

Taqiq:

Anvar26, oka kichkina bigfood ga telik qo'shvoring iltimos

Mavzu yaratish 05-Yan-2019 21:20 (1 kun 3 soat o‘tgach)

Iqitibos

Profil ShX
Xabarlarni ko‘rsatish:    

Hozirgi vaqt: 19-May 16:12

Vaqtlar farqi: UTC + 5



Siz mavzu yaratishingiz mumkin emas
Siz xabarlarga javob qaytarishingiz mumkin emas
Siz o‘z xabarlaringizni tahrirlashingiz mumkin emas
Siz o‘z xabarlaringizni o‘chirishingiz mumkin emas
Siz so‘rovlarda ovoz berishingiz mumkin emas
Siz xabalarga fayllarni biriktirishingiz mumkin emas
Siz fayllarni ko‘chirishingiz mumkin emas