˂
˃
Tarqatmalar statistikasi
Ko‘chirmoqdaman: [ 6 ]
Ko‘chirib bo‘ldim: [ 19 ]
 
     
 
 

AxeL ®

Jins:
Yigit
Staj:
1 yil 2 oy
Xabarlar:
741

Qayerdan: Gronland, Norway

Taqiq:

Kichkina oyoq / Смолфут / Smallfoot-
    Chiqqan yili: 2018
    Davlat: AQSh
    Janr: multfilm, musiqa, hayoliy, kulguli, sarguzasht
    Davomiyligi: 01:36:18
    Tarjima: Professional (Ko'p ovozli kadr ortidan) O'zbek tilida-Rejissyor: Keri Kirkpatrik, Jeyson Reysig-Rollarni ovozlashtirganlar: Chenning Tatum, Jeyms Korden, Zendaya Koleman, Kommon, Lebron Jeyms, Denni Devito, Jina Rodrigez, Yara Shahidi, Eli Genri, Jimmi Tatro,...-Tavsif: Yerdan qandaydir balandlikda Qorodamlar yashaydigan o'lka mavjud bo'lib, ular odatiy hayot tarzida hayot kechirayotib, o'zlarining afsonalarida smolfut deya atalmish kichik odamchalarni uchratib qo'lishadi. Ulardan biri esa uni ko'rdim, u mavjud deya xalqiga ma'lum qiladi. Biroq, lekin, ammo...- -Videoning sifati: HDRip
    Video format: MKV
    Video: MPEG4 Video (H264) 720x300 23.976fps 1 007 Kbps
    Audio #1: AAC 48000Hz stereo 2ch 128 Kbps

Media Info

General
Unique ID                      : 202329593860924501973205944205217677690 (0x983743290EDCD657E3823A9E7DC0C17A)
Complete name                  : D:\Films\Multfilms\HD Video\Smallfoot.WEB-DLRip.2018(AxeL).mkv
Format                         : Matroska
Format version                 : Version 4 / Version 2
File size                      : 783 MiB
Duration                       : 1h 36mn
Overall bit rate               : 1 137 Kbps
Movie name                     : Смолфут. 2018. Rip by Vovan366
Encoded date                   : UTC 2019-01-02 17:32:26
Writing application            : mkvmerge v22.0.0 ('At The End Of The World') 64-bit
Writing library                : libebml v1.3.5 + libmatroska v1.4.8
Attachements                   : cover.png
Video
ID                             : 1
Format                         : AVC
Format/Info                    : Advanced Video Codec
Format profile                 : High@L4.1
Format settings, CABAC         : Yes
Format settings, ReFrames      : 9 frames
Codec ID                       : V_MPEG4/ISO/AVC
Duration                       : 1h 36mn
Bit rate                       : 1 007 Kbps
Width                          : 720 pixels
Height                         : 300 pixels
Display aspect ratio           : 2.40:1
Frame rate mode                : Constant
Frame rate                     : 23.976 (24000/1001) fps
Color space                    : YUV
Chroma subsampling             : 4:2:0
Bit depth                      : 8 bits
Scan type                      : Progressive
Bits/(Pixel*Frame)             : 0.194
Stream size                    : 694 MiB (89%)
Title                          : Ingiz tilida (Original)
Writing library                : x264 core 146 r2538 121396c
Encoding settings              : cabac=1 / ref=9 / deblock=1:-3:-3 / analyse=0x3:0x133 / me=umh / subme=11 / psy=1 / psy_rd=1.00:0.00 / mixed_ref=1 / me_range=32 / chroma_me=1 / trellis=2 / 8x8dct=1 / cqm=0 / deadzone=21,11 / fast_pskip=0 / chroma_qp_offset=-2 / threads=6 / lookahead_threads=1 / sliced_threads=0 / nr=0 / decimate=0 / interlaced=0 / bluray_compat=0 / constrained_intra=0 / bframes=10 / b_pyramid=2 / b_adapt=1 / b_bias=0 / direct=3 / weightb=1 / open_gop=0 / weightp=2 / keyint=240 / keyint_min=23 / scenecut=40 / intra_refresh=0 / rc_lookahead=40 / rc=2pass / mbtree=0 / bitrate=1007 / ratetol=1.0 / qcomp=0.60 / qpmin=0 / qpmax=69 / qpstep=4 / cplxblur=20.0 / qblur=0.5 / vbv_maxrate=50000 / vbv_bufsize=52500 / nal_hrd=none / filler=0 / ip_ratio=1.40 / pb_ratio=1.30 / aq=1:1.00
Language                       : English
Default                        : Yes
Forced                         : No
Audio
ID                             : 2
Format                         : AAC
Format/Info                    : Advanced Audio Codec
Format profile                 : LC
Codec ID                       : A_AAC
Duration                       : 1h 36mn
Bit rate                       : 128 Kbps
Channel(s)                     : 2 channels
Channel positions              : Front: L R
Sampling rate                  : 48.0 KHz
Frame rate                     : 46.875 fps (1024 spf)
Compression mode               : Lossy
Stream size                    : 88.0 MiB (11%)
Title                          : O'zbek tilida (DUB) AxeL
Language                       : Uzbek
Default                        : Yes
Forced                         : No
-
.torrent yuklash

Yuqori tezlikda va bepul ko‘chirish!

Qanday yuklab olinadi? · Torrent nima o‘zi? · Reyting va cheklovlar

Profil ShX
Xabarlarni ko‘rsatish:    

Hozirgi vaqt: 19-May 15:35

Vaqtlar farqi: UTC + 5



Siz mavzu yaratishingiz mumkin emas
Siz xabarlarga javob qaytarishingiz mumkin emas
Siz o‘z xabarlaringizni tahrirlashingiz mumkin emas
Siz o‘z xabarlaringizni o‘chirishingiz mumkin emas
Siz so‘rovlarda ovoz berishingiz mumkin emas
Siz xabalarga fayllarni biriktirishingiz mumkin emas
Siz fayllarni ko‘chirishingiz mumkin emas