˂
˃
 

N.U.R.I.K.B.E.K ®

Jins:
Yigit
Staj:
1 yil 6 oy
Xabarlar:
468

Qayerdan: Jizzax. Paxtakor

Taqiq:

-Bamblbi | Бамблби | Bumbleebee
--Chiqqan yili: 2018
Davlat: AQSH
Janr: Fantastik, Jangari, Sarguzasht.
Davomiyligi: 01:54:00
Tarjima: Professional Yoshlar O'zbek Tilida.--Rejissyor: Trevis Nayt.--Rollarda: Dilan O'Brayn, Heyli Staynfeld, Jastin Teru, Jon Sina, Anjela Bassett, Pamela Adlon, Megin Prays, Grey DeLayl, Piter Kallen, Kennet Choy--Tavsif:1987-yil. Kaliforniyaning shaxarchalaridan birida yashiaydigan, tez orada 18 yoshga to'ladigan hayotida o'z o'rnini topishga intilayotgan Charli ismli qiz, Taqibdan qochib avtomobillar qoldiqlari saqlanadigan joyga berkinib olgan Bamblbini topib oladi. Aynan u yarador va buzuq Bamblbiga duch keladi. Uni hislarini ko'rgan Charli hayot yo'lida oddiy sariq Folksvagin Qo'ng'iz emasligini tushinib yetdi.--Videoning sifati: BDRip HEVC 1080p 10bit
Video format: MKV--Video: HVC1 1920x1080 23.976fps 1 588 kb/s
Audio: MP3 48000Hz stereo 128kbps O'zbek Tili
Subtitrlar: Kor Subtitri--

Media Info

General
Format : Matroska
Format version : Version 4 / Version 2
File size : 1.37 GiB
Duration : 1 h 54 min
Overall bit rate : 1 718 kb/s
Movie name : Bumblebee.2018.HDRip1080p HEVC 10bit Korsub ENG.Alltor.mkv
Encoded date : UTC 2019-01-23 13:45:27
Writing application : mkvmerge v15.0.0 ('Duel with the Devil') 64-bit
Writing library : libebml v1.3.5 + libmatroska v1.4.5
Video
ID : 1
Format : HEVC
Format/Info : High Efficiency Video Coding
Format profile : Main 10@L4@Main
Codec ID : V_MPEGH/ISO/HEVC
Duration : 1 h 54 min
Bit rate : 1 588 kb/s
Width : 1 920 pixels
Height : 1 080 pixels
Display aspect ratio : 16:9
Frame rate mode : Constant
Frame rate : 23.976 (24000/1001) FPS
Color space : YUV
Chroma subsampling : 4:2:0
Bit depth : 10 bits
Bits/(Pixel*Frame) : 0.032
Stream size : 1.26 GiB (92%)
Writing library : x265 2.9:[Windows][GCC 7.1.0][64 bit] 10bit
Default : Yes
Forced : No
Color range : Limited
Color primaries : BT.709
Transfer characteristics : BT.709
Matrix coefficients : BT.709
Audio
ID : 2
Format : MPEG Audio
Format version : Version 1
Format profile : Layer 3
Mode : Joint stereo
Mode extension : MS Stereo
Codec ID : A_MPEG/L3
Codec ID/Hint : MP3
Duration : 1 h 54 min
Bit rate mode : Constant
Bit rate : 128 kb/s
Channel(s) : 2 channels
Sampling rate : 48.0 kHz
Frame rate : 41.667 FPS (1152 SPF)
Compression mode : Lossy
Stream size : 104 MiB (7%)
Title : O'zbek Tili
Writing library : LAME3.99.5
Language : Uzbek
Default : Yes
Forced : No
LAVHALAR
.torrent yuklash

Yuqori tezlikda va bepul ko‘chirish!

Qanday yuklab olinadi? · Torrent nima o‘zi? · Reyting va cheklovlar



So‘ngi marta tahrirlandi: N.U.R.I.K.B.E.K (2019-01-23 20:04), Jami tahrirlangan 1 marta
Profil ShX

Rico_Bek

Jins:
Yigit
Staj:
1 yil 7 oy
Xabarlar:
131

Qayerdan: Andijon

Taqiq:

N.U.R.I.K.B.E.K, Raxmat. Bu transformerlar degan kinoni davomimi?

Mavzu yaratish 23-Yan-2019 19:57 (38 daqiqa o‘tgach)

Iqitibos

Profil ShX

N.U.R.I.K.B.E.K ®

Jins:
Yigit
Staj:
1 yil 6 oy
Xabarlar:
468

Qayerdan: Jizzax. Paxtakor

Taqiq:

Rico_Bek, yõq davomi emas aloxida bamblbi qismati ekan bir bir kõrinish bergan glavasi

Mavzu yaratish 23-Yan-2019 20:07 (10 daqiqa o‘tgach)

Iqitibos

Profil ShX

Dos

Jins:
Ko‘rsatilmagan
Staj:
7 oy 12 kun
Xabarlar:
17
Taqiq:

Uzuklar hukmdori i hobbit ga uxshash boshida nima bulgani haqida

Mavzu yaratish 23-Yan-2019 21:32 (1 soat 24 daqiqa o‘tgach)

Iqitibos

Profil ShX

AxeL

Jins:
Yigit
Staj:
1 yil 2 oy
Xabarlar:
743

Qayerdan: Gronland, Norway

Taqiq:

koreyscha subtitleniyam kiritib qo'ying.

Mavzu yaratish 24-Yan-2019 00:12 (2 soat 39 daqiqa o‘tgach)

Iqitibos

Profil ShX

N.U.R.I.K.B.E.K ®

Jins:
Yigit
Staj:
1 yil 6 oy
Xabarlar:
468

Qayerdan: Jizzax. Paxtakor

Taqiq:

AxeL, kiritilganku

Mavzu yaratish 24-Yan-2019 12:22 (12 soat o‘tgach)

Iqitibos

Profil ShX

N.U.R.I.K.B.E.K ®

Jins:
Yigit
Staj:
1 yil 6 oy
Xabarlar:
468

Qayerdan: Jizzax. Paxtakor

Taqiq:

Kõchirib oganlar boshqalar uchun xam yordam berilar deyarli xechkim tarqatmayapti Siderlardan.

Mavzu yaratish 25-Yan-2019 13:04 (1 kun o‘tgach)

Iqitibos

Profil ShX

akbarkhan

Jins:
Yigit
Staj:
3 oy 30 kun
Xabarlar:
6

Qayerdan: Guliston City

Taqiq:

tezlik berilar tortib bolmayapti 20 kb/s da tortyapti

Mavzu yaratish 25-Yan-2019 14:20 (1 soat 16 daqiqa o‘tgach)

Iqitibos

Profil ShX

N.U.R.I.K.B.E.K ®

Jins:
Yigit
Staj:
1 yil 6 oy
Xabarlar:
468

Qayerdan: Jizzax. Paxtakor

Taqiq:

akbarkhan, teredo o'rnatilganmi

Mavzu yaratish 25-Yan-2019 15:14 (53 daqiqa o‘tgach)

Iqitibos

Profil ShX

akbarkhan

Jins:
Yigit
Staj:
3 oy 30 kun
Xabarlar:
6

Qayerdan: Guliston City

Taqiq:

N.U.R.I.K.B.E.K, HA SHUNDAY O'RNATILGAN

Mavzu yaratish 25-Yan-2019 15:26 (11 daqiqa o‘tgach)

Iqitibos

Profil ShX

N.U.R.I.K.B.E.K ®

Jins:
Yigit
Staj:
1 yil 6 oy
Xabarlar:
468

Qayerdan: Jizzax. Paxtakor

Taqiq:

akbarkhan, utorrent xam sozlanganmi

Mavzu yaratish 25-Yan-2019 23:24 (7 soat o‘tgach)

Iqitibos

Profil ShX

akbarkhan

Jins:
Yigit
Staj:
3 oy 30 kun
Xabarlar:
6

Qayerdan: Guliston City

Taqiq:

N.U.R.I.K.B.E.K, qandey sozlaydi ?
yordam berib yuboring

Mavzu yaratish 26-Yan-2019 14:07 (14 soat o‘tgach)

Iqitibos

Profil ShX

N.U.R.I.K.B.E.K ®

Jins:
Yigit
Staj:
1 yil 6 oy
Xabarlar:
468

Qayerdan: Jizzax. Paxtakor

Taqiq:

akbarkhan, telegram bormi tg grupadan yozing aytaman

Mavzu yaratish 26-Yan-2019 16:00 (1 soat 52 daqiqa o‘tgach)

Iqitibos

Profil ShX
Xabarlarni ko‘rsatish:    

Hozirgi vaqt: 24-May 13:54

Vaqtlar farqi: UTC + 5



Siz mavzu yaratishingiz mumkin emas
Siz xabarlarga javob qaytarishingiz mumkin emas
Siz o‘z xabarlaringizni tahrirlashingiz mumkin emas
Siz o‘z xabarlaringizni o‘chirishingiz mumkin emas
Siz so‘rovlarda ovoz berishingiz mumkin emas
Siz xabalarga fayllarni biriktirishingiz mumkin emas
Siz fayllarni ko‘chirishingiz mumkin emas