˂
˃
Tarqatmalar statistikasi
Ko‘chirmoqdaman: [ 8 ]
Ko‘chirib bo‘ldim: [ 71 ]
 
     
 
 

N.U.R.I.K.B.E.K ®

Jins:
Yigit
Staj:
1 yil 8 oy
Xabarlar:
494

Qayerdan: Jizzax. Paxtakor

Taqiq:

-T-34 | Т-34 | Т-34
-- 2018
Rossiya
Drama, Jangovar, Sarguzasht.
02:19:07
Professional
Tarjima #1: Professional MY5TV O'zbek Tilida
Tarjima #2: Professional Rus Tilida-- -Aleksey Sidorov.-- -Aleksandr Petrov, Viktor Dobronravov, Irina Starshenbaum, Vinsens Kifer, Petr Skvorsov, Semen Treskunov, Artyom Bistrov, Anton Bogdanov, Vasiliy Urievskiy, Vasiliy Butkevich.-- -Insoniyatning eng og'ir sinovlari paytida, yaqinlaringizning hayoti har qanday harakatga bog'liq bo'lganda, ikkita qasos dushman o'zlarining qarshiliklarini boshlaydi. Asirga olinganlar, kecha kursant Ivushkin jasur qochishni rejalashtirmoqda. U ekipajni yig'adi va afsonaviy T-34da Jager boshchiligidagi Germaniya tanklari bilan kurashadi. Uning sevgisi va Vatan uchun, u oxirigacha borishga tayyor.-- -- WEBRip
MKV-- Xvid 720x304 23.976 fps 1 365 kb/s
MP3 44100Hz stereo 128kbps O'zbek Tili
MP3 44100Hz stereo 128kbps Rus Tili--

Media Info

General
Format : Matroska
Format version : Version 4 / Version 2
File size : 1.58 GiB
Duration : 2 h 19 min
Overall bit rate mode : Variable
Overall bit rate : 1 623 kb/s
Encoded date : UTC 2019-01-24 20:14:36
Writing application : mkvmerge v15.0.0 ('Duel with the Devil') 64-bit
Writing library : libebml v1.3.5 + libmatroska v1.4.5
Video
ID : 1
Format : MPEG-4 Visual
Format profile : Advanced Simple@L5
Format settings, BVOP : 1
Format settings, QPel : No
Format settings, GMC : No warppoints
Format settings, Matrix : Custom
Codec ID : V_MS/VFW/FOURCC / XVID
Codec ID/Hint : XviD
Duration : 2 h 19 min
Bit rate : 1 365 kb/s
Width : 720 pixels
Height : 304 pixels
Display aspect ratio : 2.35:1
Frame rate mode : Constant
Frame rate : 23.976 (23976/1000) FPS
Color space : YUV
Chroma subsampling : 4:2:0
Bit depth : 8 bits
Scan type : Progressive
Compression mode : Lossy
Bits/(Pixel*Frame) : 0.260
Stream size : 1.33 GiB (84%)
Writing library : XviD 67
Default : Yes
Forced : No
Audio #1
ID : 2
Format : MPEG Audio
Format version : Version 1
Format profile : Layer 3
Mode : Joint stereo
Mode extension : MS Stereo
Codec ID : A_MPEG/L3
Codec ID/Hint : MP3
Duration : 2 h 19 min
Bit rate mode : Constant
Bit rate : 128 kb/s
Channel(s) : 2 channels
Sampling rate : 44.1 kHz
Frame rate : 38.281 FPS (1152 SPF)
Compression mode : Lossy
Stream size : 127 MiB (8%)
Title : O'zbek Tili
Writing library : LAME3.99.5
Language : Uzbek
Default : Yes
Forced : No
Audio #2
ID : 3
Format : MPEG Audio
Format version : Version 1
Format profile : Layer 3
Mode : Joint stereo
Mode extension : MS Stereo
Codec ID : A_MPEG/L3
Codec ID/Hint : MP3
Duration : 2 h 19 min
Bit rate mode : Variable
Bit rate : 128 kb/s
Channel(s) : 2 channels
Sampling rate : 44.1 kHz
Frame rate : 38.281 FPS (1152 SPF)
Compression mode : Lossy
Stream size : 127 MiB (8%)
Title : Rus Tili
Writing library : LAME3.98.4
Language : Russian
Default : No
Forced : No
-
.torrent yuklash

Yuqori tezlikda va bepul ko‘chirish!

Qanday yuklab olinadi? · Torrent nima o‘zi? · Reyting va cheklovlar



So‘ngi marta tahrirlandi: N.U.R.I.K.B.E.K (2019-01-26 01:02), Jami tahrirlangan 2 marta
Profil ShX

Lock

Jins:
Yigit
Staj:
9 oy 11 kun
Xabarlar:
43

Qayerdan: Namangan

Taqiq:

EEEEE Daxshat zo'r malades

Mavzu yaratish 25-Yan-2019 08:42 (6 soat o‘tgach)

Iqitibos

Profil ShX

N.U.R.I.K.B.E.K ®

Jins:
Yigit
Staj:
1 yil 8 oy
Xabarlar:
494

Qayerdan: Jizzax. Paxtakor

Taqiq:

Layk bosilar kõpro svet yonishi bilan tarqataman

Mavzu yaratish 25-Yan-2019 12:30 (3 soat o‘tgach)

Iqitibos

Profil ShX

azizbek

Jins:
Yigit
Staj:
1 yil 8 oy
Xabarlar:
169

Qayerdan: Surxondaryo

Taqiq:

N.U.R.I.K.B.E.K, Svetgayam layk bosish kerak. Layk ko'p bo'lsa yonadi

Mavzu yaratish 25-Yan-2019 14:22 (1 soat 51 daqiqa o‘tgach)

Iqitibos

Profil ShX

N.U.R.I.K.B.E.K ®

Jins:
Yigit
Staj:
1 yil 8 oy
Xabarlar:
494

Qayerdan: Jizzax. Paxtakor

Taqiq:

azizbek, bosamiz unga xam yetadi

Mavzu yaratish 25-Yan-2019 15:13 (51 daqiqa o‘tgach)

Iqitibos

Profil ShX

dilshod6663

Jins:
Ko‘rsatilmagan
Staj:
1 yil 7 oy
Xabarlar:
78
Taqiq:

XAMMAMIZ TARQATISHIMIZ KERAK MAN XAM SKACHAT QILAMAN VA TARQATAMAN

Mavzu yaratish 25-Yan-2019 22:34 (7 soat o‘tgach)

Iqitibos

Profil ShX
Xabarlarni ko‘rsatish:    

Hozirgi vaqt: 21-Iyul 04:56

Vaqtlar farqi: UTC + 5



Siz mavzu yaratishingiz mumkin emas
Siz xabarlarga javob qaytarishingiz mumkin emas
Siz o‘z xabarlaringizni tahrirlashingiz mumkin emas
Siz o‘z xabarlaringizni o‘chirishingiz mumkin emas
Siz so‘rovlarda ovoz berishingiz mumkin emas
Siz xabalarga fayllarni biriktirishingiz mumkin emas
Siz fayllarni ko‘chirishingiz mumkin emas