˂
˃
Tarqatmalar statistikasi
Ko‘chirmoqdaman: [ 6 ]
Ko‘chirib bo‘ldim: [ 26 ]
 
     
 
 

AxeL ®

Jins:
Yigit
Staj:
1 yil 4 oy
Xabarlar:
743

Qayerdan: Gronland, Norway

Taqiq:

Tungi Shahar Ovchilari / Хроники хищных городов / Mortal Engines- Chiqqan yili: 2018
Davlat: Yangi Zelandiya, AQSh
Janr: fantastika, hayoliy, jangari, triller, sarguzasht
Davomiyligi: 02:08:21
Tarjima: Professional (Dublyaj qilingan) o'zbek tilida-Rejissyor: Christian Rivers-Rollarda: Gera Hilmarsdottir, Robert Shien, Hyugo Uiving, Ronan Rafteri, Leyla Jorj, Patrik Melahayd, Stiven Leng, Kolin Selmon, Mark Mitchinson, Menik Guneratne, ...-Tavsif: Butun dunyo qirg'inidan so'ng, shaxarlar bir joyda turmasdan g'ildiraklar yordamida qo'zg'alib yuradigan davrda, ikki inson tirik qolish uchun va fitnalarni tohtatish uchun Londonda uchrashdilar!-Кинопоиск: 6.411
IMDb: 6.3
Premyera: 05 Dekabr 2018-Videoning sifati: WEB-DLRip
Video format: MP4
Video: MPEG4 Video (H264) 720x304 23.98fps 1469 kbps
Audio: AAC 48000Hz stereo 128 kbps O'zbek tilida-

Media Info

General
Complete name : D:\Films\Tarjima\HD Video\Mortal.Engines.2018.WEB.DL.AxeL.mp4
Format : MPEG-4
Format profile : Base Media
Codec ID : isom (isom/iso2/avc1/mp41)
File size : 1.43 GiB
Duration : 2h 8mn
Overall bit rate : 1 599 Kbps
Video
ID : 1
Format : AVC
Format/Info : Advanced Video Codec
Format profile : Main@L3
Format settings, CABAC : Yes
Format settings, ReFrames : 3 frames
Codec ID : avc1
Codec ID/Info : Advanced Video Coding
Duration : 2h 8mn
Bit rate : 1 469 Kbps
Width : 720 pixels
Height : 304 pixels
Display aspect ratio : 2.35:1
Frame rate mode : Variable
Frame rate : 23.810 fps
Minimum frame rate : 11.990 fps
Maximum frame rate : 23.980 fps
Color space : YUV
Chroma subsampling : 4:2:0
Bit depth : 8 bits
Scan type : Progressive
Bits/(Pixel*Frame) : 0.282
Stream size : 1.32 GiB (92%)
Writing library : x264 core 142 r2455 021c0dc
Encoding settings : cabac=1 / ref=3 / deblock=1:0:0 / analyse=0x1:0x111 / me=hex / subme=7 / psy=1 / psy_rd=1.00:0.00 / mixed_ref=1 / me_range=16 / chroma_me=1 / trellis=1 / 8x8dct=0 / cqm=0 / deadzone=21,11 / fast_pskip=1 / chroma_qp_offset=-4 / threads=4 / lookahead_threads=1 / sliced_threads=0 / nr=0 / decimate=1 / interlaced=0 / bluray_compat=0 / constrained_intra=0 / bframes=0 / weightp=2 / keyint=250 / keyint_min=25 / scenecut=40 / intra_refresh=0 / rc=crf / mbtree=0 / crf=18.0 / qcomp=0.60 / qpmin=4 / qpmax=69 / qpstep=4 / ip_ratio=1.40 / aq=1:1.00
Audio
ID : 2
Format : AAC
Format/Info : Advanced Audio Codec
Format profile : LC
Codec ID : 40
Duration : 2h 8mn
Bit rate mode : Constant
Bit rate : 128 Kbps
Channel(s) : 2 channels
Channel positions : Front: L R
Sampling rate : 48.0 KHz
Frame rate : 46.875 fps (1024 spf)
Compression mode : Lossy
Stream size : 117 MiB (8%)
Default : Yes
Alternate group : 1
.torrent yuklash

Yuqori tezlikda va bepul ko‘chirish!

Qanday yuklab olinadi? · Torrent nima o‘zi? · Reyting va cheklovlar

Profil ShX
Xabarlarni ko‘rsatish:    

Hozirgi vaqt: 23-Iyul 05:02

Vaqtlar farqi: UTC + 5



Siz mavzu yaratishingiz mumkin emas
Siz xabarlarga javob qaytarishingiz mumkin emas
Siz o‘z xabarlaringizni tahrirlashingiz mumkin emas
Siz o‘z xabarlaringizni o‘chirishingiz mumkin emas
Siz so‘rovlarda ovoz berishingiz mumkin emas
Siz xabalarga fayllarni biriktirishingiz mumkin emas
Siz fayllarni ko‘chirishingiz mumkin emas