˂
˃
Tarqatmalar statistikasi
Ko‘chiraman: [ 1 ]
Ko‘chirmoqdaman: [ 8 ]
Ko‘chirib bo‘ldim: [ 47 ]
 
     
 
 

N.U.R.I.K.B.E.K ®

Jins:
Yigit
Staj:
1 yil 7 oy
Xabarlar:
476

Qayerdan: Jizzax. Paxtakor

Taqiq:



--Jon Uik | Джон Уик | John Wick
--Chiqqan yili: 2014
Davlat: AQSH
Janr: Jangari, Triller, Jinoyat.
Davomiyligi: 01:41:11
Tarjima: Professional
Tarjima #1: Professional Kinoteatr O'zbek Tilida
Tarjima #2: Professional Pifagor Rus Tilida
Tarjima #3: Professional [ Original Ing Tilida--Rejissyor:
Chad Stahelski / Devid Litch.--Rollarda:
Kianu Rivz, Mikael Nyukvist, Elfi Ouen-Allen, Uillem Defo, Din Uinters, Edriann Paliki, Omer Barnea, Tobi Leonard Mur, Deniel Bernxard, Bridjet Moynexen.--Tavsif:
Jon Vikson, birinchi qarashda tinch va osoyishta hayot kechiradigan eng oddiy amerikalik. Biroq, uning ko'pchiligi yollangan qotil va biznesdagi eng yaxshi mutaxassislardan biri ekanini bilishadi.
Huquqbuzar 1969 yilgi Mustangni qochib ketganidan so'ng, uning o'lgan turmush o'rtog'ining yagona eslatuvchisi bo'lgan It Daisyni o'ldirganidan so'ng, Jon o'z o'tmishlariga qaytishga majbur. Endi Vik yo'lni bosib o'tish uchun o'zboshimchalik qiladigan odamning ovini boshlaydi va u qasos olish uchun hamma narsani qilishga tayyor ...-- --Videoning sifati: BDRip-AVC
Video format: MKV--Video: MPEG4 Video (H264) 1152x480 23.976fps 2 842 kb/s
Audio : MP3 48000Hz stereo 128kbps O'zbek Tili
Audio 2 : Dolby AC3 48000Hz 6ch 384kbps Rus Tili
Audio 3: Dolby AC3 48000Hz 6ch 448kbps Ing Tili--

Media Info

General
Format : Matroska
Format version : Version 4 / Version 2
File size : 2.69 GiB
Duration : 1 h 41 min
Overall bit rate : 3 802 kb/s
Movie name : Автор: Sem-te
Encoded date : UTC 2019-02-04 19:00:17
Writing application : mkvmerge v15.0.0 ('Duel with the Devil') 64-bit
Writing library : libebml v1.3.5 + libmatroska v1.4.5
Video
ID : 1
Format : AVC
Format/Info : Advanced Video Codec
Format profile : High@L4.1
Format settings, CABAC : Yes
Format settings, RefFrames : 12 frames
Codec ID : V_MPEG4/ISO/AVC
Duration : 1 h 41 min
Bit rate : 2 842 kb/s
Width : 1 152 pixels
Height : 480 pixels
Display aspect ratio : 2.40:1
Frame rate mode : Constant
Frame rate : 23.976 (24000/1001) FPS
Original frame rate : 23.976 (23976/1000) FPS
Color space : YUV
Chroma subsampling : 4:2:0
Bit depth : 8 bits
Scan type : Progressive
Bits/(Pixel*Frame) : 0.214
Stream size : 2.01 GiB (75%)
Writing library : x264 core 146 r2538 121396c
Default : Yes
Forced : No

Audio #1

ID : 2
Format : MPEG Audio
Format version : Version 1
Format profile : Layer 3
Mode : Joint stereo
Mode extension : MS Stereo
Codec ID : A_MPEG/L3
Codec ID/Hint : MP3
Duration : 1 h 41 min
Bit rate mode : Constant
Bit rate : 128 kb/s
Channel(s) : 2 channels
Sampling rate : 48.0 kHz
Frame rate : 41.667 FPS (1152 SPF)
Compression mode : Lossy
Stream size : 92.6 MiB (3%)
Title : O'zbek Tili
Writing library : LAME3.99.5
Language : Uzbek
Default : Yes
Forced : No
Audio #2
ID : 3
Format : AC-3
Format/Info : Audio Coding 3
Format settings, Endianness : Big
Codec ID : A_AC3
Duration : 1 h 41 min
Bit rate mode : Constant
Bit rate : 384 kb/s
Channel(s) : 6 channels
Channel positions : Front: L C R, Side: L R, LFE
Sampling rate : 48.0 kHz
Frame rate : 31.250 FPS (1536 SPF)
Bit depth : 16 bits
Compression mode : Lossy
Stream size : 278 MiB (10%)
Title : Rus Tili / PIFAGOR
Language : Russian
Service kind : Complete Main
Default : No
Forced : No
Audio #3
ID : 4
Format : AC-3
Format/Info : Audio Coding 3
Format settings, Endianness : Big
Codec ID : A_AC3
Duration : 1 h 41 min
Bit rate mode : Constant
Bit rate : 448 kb/s
Channel(s) : 6 channels
Channel positions : Front: L C R, Side: L R, LFE
Sampling rate : 48.0 kHz
Frame rate : 31.250 FPS (1536 SPF)
Bit depth : 16 bits
Compression mode : Lossy
Stream size : 324 MiB (12%)
Title : Ing Tili / Original
Language : English
Service kind : Complete Main
Default : No
Forced : No

LAVHALAR--
.torrent yuklash

Yuqori tezlikda va bepul ko‘chirish!

Qanday yuklab olinadi? · Torrent nima o‘zi? · Reyting va cheklovlar



So‘ngi marta tahrirlandi: N.U.R.I.K.B.E.K (2019-02-05 00:32), Jami tahrirlangan 2 marta
Profil ShX

N.U.R.I.K.B.E.K ®

Jins:
Yigit
Staj:
1 yil 7 oy
Xabarlar:
476

Qayerdan: Jizzax. Paxtakor

Taqiq:

Uydagilar tvdagi serialarni kõrivolguncha bekor õtirmay deb telefonda taxlab õtiribman tv bõshasin biroz kutaslar endi.

Mavzu yaratish 04-Fev-2019 22:47 (4 daqiqa o‘tgach)

Iqitibos

Profil ShX

MRLG

Jins:
Yigit
Staj:
1 yil 10 oy
Xabarlar:
603
Taqiq:

N.U.R.I.K.B.E.K, Muqovani ham itini topibsizki. kattta harflar bilan ALLTOR deb yozilganidan

Mavzu yaratish 04-Fev-2019 22:58 (11 daqiqa o‘tgach)

Iqitibos

Profil ShX

N.U.R.I.K.B.E.K ®

Jins:
Yigit
Staj:
1 yil 7 oy
Xabarlar:
476

Qayerdan: Jizzax. Paxtakor

Taqiq:

MRLG, xali almashtiraman o'sha relizni o'zini xamma malumotini shundaysiga opqo'yadoldim qayerdadur afcharkasini ko'rgandim o'shani qo'yaman.

Mavzu yaratish 04-Fev-2019 23:04 (5 daqiqa o‘tgach)

Iqitibos

Profil ShX

PrankSter

Jins:
Yigit
Staj:
8 oy 10 kun
Xabarlar:
50
Taqiq:

Kinoni nomi bosa kerakta .. Nomlanishimi

Mavzu yaratish 04-Fev-2019 23:06 (2 daqiqa o‘tgach)

Iqitibos

Profil ShX

PrankSter

Jins:
Yigit
Staj:
8 oy 10 kun
Xabarlar:
50
Taqiq:

Unaqa emas ekan nomlanishi

FOTO

Mavzu yaratish 04-Fev-2019 23:20 (14 daqiqa o‘tgach)

Iqitibos

Profil ShX

PrankSter

Jins:
Yigit
Staj:
8 oy 10 kun
Xabarlar:
50
Taqiq:

Shu kinoning 2 chasti yam boganda zor bolardi

Mavzu yaratish 04-Fev-2019 23:21 (45 soniya o‘tgach)

Iqitibos

Profil ShX

N.U.R.I.K.B.E.K ®

Jins:
Yigit
Staj:
1 yil 7 oy
Xabarlar:
476

Qayerdan: Jizzax. Paxtakor

Taqiq:

PrankSter, xali uzb tildagisi chiqmadida qo'ysa unisini xam joylimiz

Mavzu yaratish 04-Fev-2019 23:24 (3 daqiqa o‘tgach)

Iqitibos

Profil ShX

N.U.R.I.K.B.E.K ®

Jins:
Yigit
Staj:
1 yil 7 oy
Xabarlar:
476

Qayerdan: Jizzax. Paxtakor

Taqiq:

bo'ladimi

Mavzu yaratish 04-Fev-2019 23:29 (5 daqiqa o‘tgach)

Iqitibos

Profil ShX

azizbek

Jins:
Yigit
Staj:
1 yil 7 oy
Xabarlar:
167

Qayerdan: Surxondaryo

Taqiq:

PrankSter, yakshanba kuni kinoteatrdan beradi

Mavzu yaratish 05-Fev-2019 08:35 (9 soat o‘tgach)

Iqitibos

Profil ShX

iJalol_Production

Jins:
Yigit
Staj:
1 yil 2 oy
Xabarlar:
73
Taqiq:

kattakon raahmat
+5 ili SPS

Mavzu yaratish 05-Fev-2019 08:47 (12 daqiqa o‘tgach)

Iqitibos

Profil ShX

N.U.R.I.K.B.E.K ®

Jins:
Yigit
Staj:
1 yil 7 oy
Xabarlar:
476

Qayerdan: Jizzax. Paxtakor

Taqiq:

azizbek, 2ni xam berarmikin

Mavzu yaratish 05-Fev-2019 11:41 (2 soat 53 daqiqa o‘tgach)

Iqitibos

Profil ShX

N.U.R.I.K.B.E.K ®

Jins:
Yigit
Staj:
1 yil 7 oy
Xabarlar:
476

Qayerdan: Jizzax. Paxtakor

Taqiq:

O'hshab qolsa DILOGYA qiberaman

Mavzu yaratish 05-Fev-2019 13:13 (1 soat 31 daqiqa o‘tgach)

Iqitibos

Profil ShX

jaxonaziz

Jins:
Ko‘rsatilmagan
Staj:
5 oy 13 kun
Xabarlar:
3
Taqiq:

zorrr

Mavzu yaratish 05-Fev-2019 22:22 (9 soat o‘tgach)

Iqitibos

Profil ShX

N.U.R.I.K.B.E.K ®

Jins:
Yigit
Staj:
1 yil 7 oy
Xabarlar:
476

Qayerdan: Jizzax. Paxtakor

Taqiq:

Xamelar kõchirib bõlgach pauza qibqõyaslarmi nimabalo razdachasi yo xechbirini siderlarni.

Mavzu yaratish 06-Fev-2019 00:03 (1 soat 41 daqiqa o‘tgach)

Iqitibos

Profil ShX
Xabarlarni ko‘rsatish:    

Hozirgi vaqt: 17-Iyun 17:33

Vaqtlar farqi: UTC + 5



Siz mavzu yaratishingiz mumkin emas
Siz xabarlarga javob qaytarishingiz mumkin emas
Siz o‘z xabarlaringizni tahrirlashingiz mumkin emas
Siz o‘z xabarlaringizni o‘chirishingiz mumkin emas
Siz so‘rovlarda ovoz berishingiz mumkin emas
Siz xabalarga fayllarni biriktirishingiz mumkin emas
Siz fayllarni ko‘chirishingiz mumkin emas