˂
˃
Tarqatmalar statistikasi
Ko‘chiraman: [ 1 ]
Ko‘chirmoqdaman: [ 21 ]
Ko‘chirib bo‘ldim: [ 13 ]
 
     
 
 

AxeL ®

Jins:
Yigit
Staj:
1 yil 2 oy
Xabarlar:
740

Qayerdan: Gronland, Norway

Taqiq:

Super Oila 2 / Суперсемейка 2 / Incredibles 2- -Film haqida-
    Chiqqan yili: 2018
    Davlat: AQSh
    Janr: multfilm, fantastika, jangari, kulguli, sarguzasht, oilaviy
    Davomiyligi: 01:57:49 + 01:41:40
    Tarjima: Professional (Ko'p ovozli kadr ortidan) O'zbek tilida-Diqqat! Multfilm ikkita versiyada e'tiboringizga taqdim etilmoqda:
    1. Complete Edition (Izoh: Multfilm to'liq holda, tvda kesilgan joylari rus tilida davom ettirildi!)
    2. Cut Edition (Izoh: Multfilm kesilgan holda, tvda kesilgan joylaridek qilib ishladim, qo'shimchasiga sifatli ravishda!)
    -Film ijodkorlari-Rejissyor: Bred Byord / Brad Bird-Rollarni ovozlashtirganlar: Kreyg T. Nelson (Bob Parr / Mr. Incredible), Xolli Xanter (Helen Parr / Elastigirl), Sara Vauel (Violet Parr), Xak Milner (Dashiell Parr (Dash)), Ketrik Kiner (Evelyn Deavor), Ilay Fuchile (Jack-Jack Parr), Bob Odenkyork (Winston Deavor), Samuel L. Jekson (Lucius Best / Frozone), Maykl Byord (Tony Rydinger), Sofiya Bush (Voyd), ...-Tavsif- Tavsif: Super-oila birinchi qismida sodir bo'lgan voqealardan so'ng jurnalistlar e'tiborini tortmoqda. To'satdan televizor ekranida eri bilan taqqoslaganda, Miss Clarke ajoyib ko'rinadi. Hurmatli janob janoblari o'z uylarida o'tirishga va o'zlarining ulkan kuchlari bilan norozi bo'lishga o'zlarining sabablari bor bolalarga qarashga majbur. Biroq, oilaviy muammolar, yangi turmush o'rtoqlarning xotirjam bo'lishiga yangi kuchli dushman tomonidan tahdid solib turganda paydo bo'ladi.-Reyting- -Texnik Ma'lumotlar-Videoning sifati: BDRip-HEVC 1080p 10Bit + WEB-DLRip
    Video format: MKV, MP4
    Video (Complete Edition): HVC1 1920x800 23.976fps 1 499 Kbps
    Audio #1 (Complete Edition): Dolby AC3 48000Hz 6ch 384kbps Rus tilida
    Audio #2 (Complete Edition): AAC 48000Hz 8ch 276 Kbps Ingliz tilida
    Audio #3 (Complete Edition): AAC 48000Hz stereo 2ch 128 Kbps O'zbek tilida
    Video (Cut Edition): MPEG4 Video (H264) 720x304 23.98fps 1561kbps
    Audio (Cut Edition): AAC 48000Hz stereo 127kbps O'zbek tilida-

    HEVC Info

    General
    Unique ID : 237837949283805298437923572879323284098 (0xB2EDEC3F7CA5FF1D339C6316D533C282)
    Complete name : D:\Seeders\Super Oila 2\Incredibles.2.Complete.Edition[AxeL].x265.BDRip 1080p HEVC 10bit.mkv
    Format : Matroska
    Format version : Version 4 / Version 2
    File size : 1.90 GiB
    Duration : 1h 57mn
    Overall bit rate : 2 304 Kbps
    Movie name : Encoder Output\Incredibles 2 2018 (1080p x265 10bit FS91 Joy)[UTR]
    Encoded date : UTC 2019-02-05 19:04:05
    Writing application : mkvmerge v22.0.0 ('At The End Of The World') 64-bit
    Writing library : libebml v1.3.5 + libmatroska v1.4.8
    Attachements : cover.jpg
    Video
    ID : 1
    Format : HEVC
    Format/Info : High Efficiency Video Coding
    Format profile : Main 10@L4@Main
    Codec ID : V_MPEGH/ISO/HEVC
    Duration : 1h 57mn
    Bit rate : 1 499 Kbps
    Width : 1 920 pixels
    Height : 800 pixels
    Display aspect ratio : 2.40:1
    Frame rate mode : Constant
    Frame rate : 23.976 (24000/1001) fps
    Color space : YUV
    Chroma subsampling : 4:2:0
    Bit depth : 10 bits
    Bits/(Pixel*Frame) : 0.041
    Stream size : 1.23 GiB (65%)
    Writing library : x265 2.8+19-bcdc610cf5f0:[Windows][MSVC 1914][64 bit] 10bit
    Encoding settings : cpuid=1111039 / frame-threads=3 / numa-pools=8 / wpp / no-pmode / no-pme / no-psnr / ssim / log-level=2 / input-csp=1 / input-res=1920x800 / interlace=0 / total-frames=169514 / level-idc=0 / high-tier=1 / uhd-bd=0 / ref=4 / no-allow-non-conformance / no-repeat-headers / annexb / no-aud / no-hrd / info / hash=0 / no-temporal-layers / open-gop / min-keyint=23 / keyint=250 / gop-lookahead=0 / bframes=4 / b-adapt=2 / b-pyramid / bframe-bias=0 / rc-lookahead=80 / lookahead-slices=4 / scenecut=40 / radl=0 / no-intra-refresh / ctu=64 / min-cu-size=8 / rect / no-amp / max-tu-size=32 / tu-inter-depth=1 / tu-intra-depth=1 / limit-tu=0 / rdoq-level=2 / dynamic-rd=0.00 / ssim-rd / signhide / no-tskip / nr-intra=0 / nr-inter=0 / no-constrained-intra / strong-intra-smoothing / max-merge=3 / limit-refs=3 / limit-modes / me=3 / subme=3 / merange=57 / temporal-mvp / weightp / no-weightb / no-analyze-src-pics / deblock=0:0 / sao / no-sao-non-deblock / rd=4 / no-early-skip / rskip / no-fast-intra / no-tskip-fast / no-cu-lossless / no-b-intra / no-splitrd-skip / rdpenalty=0 / psy-rd=0.00 / psy-rdoq=1.00 / no-rd-refine / no-lossless / cbqpoffs=0 / crqpoffs=0 / rc=abr / bitrate=1500 / qcomp=0.60 / qpstep=4 / stats-write=0 / stats-read=2 / cplxblur=20.0 / qblur=0.5 / vbv-maxrate=4500 / vbv-bufsize=9000 / vbv-init=0.9 / ipratio=1.40 / pbratio=1.30 / aq-mode=2 / aq-strength=0.80 / cutree / zone-count=0 / no-strict-cbr / qg-size=32 / no-rc-grain / qpmax=69 / qpmin=0 / no-const-vbv / sar=0 / overscan=0 / videoformat=5 / range=0 / colorprim=2 / transfer=2 / colormatrix=2 / chromaloc=0 / display-window=0 / max-cll=0,0 / min-luma=0 / max-luma=1023 / log2-max-poc-lsb=8 / vui-timing-info / vui-hrd-info / slices=1 / no-opt-qp-pps / no-opt-ref-list-length-pps / multi-pass-opt-rps / scenecut-bias=0.05 / no-opt-cu-delta-qp / no-aq-motion / no-hdr / no-hdr-opt / no-dhdr10-opt / no-idr-recovery-sei / analysis-reuse-level=10 / scale-factor=0 / refine-intra=0 / refine-inter=0 / refine-mv=0 / limit-sao / ctu-info=0 / no-lowpass-dct / refine-mv-type=0 / copy-pic=1 / max-ausize-factor=1.0 / no-dynamic-refine / no-single-sei
    Default : Yes
    Forced : No
    Audio #1
    ID : 5
    Format : AC-3
    Format/Info : Audio Coding 3
    Mode extension : CM (complete main)
    Format settings, Endianness : Big
    Codec ID : A_AC3
    Duration : 1h 57mn
    Bit rate mode : Constant
    Bit rate : 384 Kbps
    Channel(s) : 6 channels
    Channel positions : Front: L C R, Side: L R, LFE
    Sampling rate : 48.0 KHz
    Frame rate : 31.250 fps (1536 spf)
    Compression mode : Lossy
    Stream size : 324 MiB (17%)
    Title : Rus tilida
    Language : Russian
    Default : Yes
    Forced : Yes
    Audio #2
    ID : 9
    Format : AAC
    Format/Info : Advanced Audio Codec
    Format profile : HE-AAC / LC
    Codec ID : A_AAC
    Duration : 1h 57mn
    Bit rate : 276 Kbps
    Channel(s) : 7 channels
    Channel(s)_Original : 8 channels
    Channel positions : Front: L C R, Side: L R, Back: L R, LFE
    Sampling rate : 48.0 KHz / 24.0 KHz
    Frame rate : 23.438 fps (1024 spf)
    Compression mode : Lossy
    Delay relative to video : 31ms
    Stream size : 233 MiB (12%)
    Title : Ingliz tilida
    Language : English
    Default : No
    Forced : Yes
    Audio #3
    ID : 10
    Format : AAC
    Format/Info : Advanced Audio Codec
    Format profile : LC
    Codec ID : A_AAC
    Duration : 1h 57mn
    Bit rate : 128 Kbps
    Channel(s) : 2 channels
    Channel positions : Front: L R
    Sampling rate : 48.0 KHz
    Frame rate : 46.875 fps (1024 spf)
    Compression mode : Lossy
    Stream size : 108 MiB (6%)
    Title : O'zbek tilida (DUB) AxeL
    Language : Uzbek
    Default : No
    Forced : No
    Text #1
    ID : 2
    Format : PGS
    Muxing mode : zlib
    Codec ID : S_HDMV/PGS
    Codec ID/Info : Picture based subtitle format used on BDs/HD-DVDs
    Duration : 1h 56mn
    Bit rate : 42.7 Kbps
    Count of elements : 3522
    Stream size : 35.5 MiB (2%)
    Language : English
    Default : No
    Forced : No
    Text #2
    ID : 3
    Format : UTF-8
    Codec ID : S_TEXT/UTF8
    Codec ID/Info : UTF-8 Plain Text
    Duration : 1h 47mn
    Bit rate : 75 bps
    Count of elements : 1298
    Stream size : 59.1 KiB (0%)
    Language : Dutch
    Default : No
    Forced : No
    Text #3
    ID : 4
    Format : UTF-8
    Codec ID : S_TEXT/UTF8
    Codec ID/Info : UTF-8 Plain Text
    Duration : 1h 46mn
    Bit rate : 68 bps
    Count of elements : 1666
    Stream size : 53.3 KiB (0%)
    Language : French
    Default : No
    Forced : No
    Text #4
    ID : 6
    Format : UTF-8
    Codec ID : S_TEXT/UTF8
    Codec ID/Info : UTF-8 Plain Text
    Duration : 1h 7mn
    Bit rate : 0 bps
    Count of elements : 3
    Stream size : 203 Bytes (0%)
    Title : Forced
    Language : Russian
    Default : Yes
    Forced : Yes
    Text #5
    ID : 7
    Format : UTF-8
    Codec ID : S_TEXT/UTF8
    Codec ID/Info : UTF-8 Plain Text
    Duration : 1h 55mn
    Bit rate : 118 bps
    Count of elements : 1760
    Stream size : 101 KiB (0%)
    Title : iTunes
    Language : Russian
    Default : No
    Forced : No
    Text #6
    ID : 8
    Format : UTF-8
    Codec ID : S_TEXT/UTF8
    Codec ID/Info : UTF-8 Plain Text
    Duration : 1h 54mn
    Bit rate : 130 bps
    Count of elements : 2304
    Stream size : 110 KiB (0%)
    Title : SDH
    Language : Russian
    Default : No
    Forced : No

    WEBDL Info

    General
    Complete name : D:\Seeders\Super Oila 2\SuperOila.2.Cut.Edition[AxeL].mp4
    Format : MPEG-4
    Format profile : Base Media
    Codec ID : isom (isom/iso2/avc1/mp41)
    File size : 1.20 GiB
    Duration : 1h 41mn
    Overall bit rate : 1 692 Kbps
    Video
    ID : 1
    Format : AVC
    Format/Info : Advanced Video Codec
    Format profile : Main@L3
    Format settings, CABAC : Yes
    Format settings, ReFrames : 3 frames
    Codec ID : avc1
    Codec ID/Info : Advanced Video Coding
    Duration : 1h 41mn
    Bit rate : 1 562 Kbps
    Width : 720 pixels
    Height : 304 pixels
    Display aspect ratio : 2.35:1
    Frame rate mode : Variable
    Frame rate : 23.810 fps
    Minimum frame rate : 11.990 fps
    Maximum frame rate : 23.980 fps
    Color space : YUV
    Chroma subsampling : 4:2:0
    Bit depth : 8 bits
    Scan type : Progressive
    Bits/(Pixel*Frame) : 0.300
    Stream size : 1.11 GiB (92%)
    Writing library : x264 core 142 r2455 021c0dc
    Encoding settings : cabac=1 / ref=3 / deblock=1:0:0 / analyse=0x1:0x111 / me=hex / subme=7 / psy=1 / psy_rd=1.00:0.00 / mixed_ref=1 / me_range=16 / chroma_me=1 / trellis=1 / 8x8dct=0 / cqm=0 / deadzone=21,11 / fast_pskip=1 / chroma_qp_offset=-4 / threads=4 / lookahead_threads=1 / sliced_threads=0 / nr=0 / decimate=1 / interlaced=0 / bluray_compat=0 / constrained_intra=0 / bframes=0 / weightp=2 / keyint=250 / keyint_min=25 / scenecut=40 / intra_refresh=0 / rc=crf / mbtree=0 / crf=18.0 / qcomp=0.60 / qpmin=4 / qpmax=69 / qpstep=4 / ip_ratio=1.40 / aq=1:1.00
    Audio
    ID : 2
    Format : AAC
    Format/Info : Advanced Audio Codec
    Format profile : LC
    Codec ID : 40
    Duration : 1h 41mn
    Bit rate mode : Constant
    Bit rate : 128 Kbps
    Channel(s) : 2 channels
    Channel positions : Front: L R
    Sampling rate : 48.0 KHz
    Frame rate : 46.875 fps (1024 spf)
    Compression mode : Lossy
    Stream size : 93.0 MiB (8%)
    Default : Yes
    Alternate group : 1
    Filmdan lavhalar-Complete Edition:Cut Edition
    .torrent yuklash

    Yuqori tezlikda va bepul ko‘chirish!

    Qanday yuklab olinadi? · Torrent nima o‘zi? · Reyting va cheklovlar

Profil ShX

logan7272

Jins:
Yigit
Staj:
1 yil 2 oy
Xabarlar:
73

Qayerdan: Namangan

Taqiq:

oltin

Mavzu yaratish 06-Fev-2019 15:57 (15 soat o‘tgach)

Iqitibos

Profil ShX

alibobo2450

Jins:
Yigit
Staj:
1 yil
Xabarlar:
12

Qayerdan: Andijon

Taqiq:

bunda 2 fayl turbdi qaysi bri bu

Mavzu yaratish 06-Fev-2019 19:46 (3 soat o‘tgach)

Iqitibos

Profil ShX

alibobo2450

Jins:
Yigit
Staj:
1 yil
Xabarlar:
12

Qayerdan: Andijon

Taqiq:

bunda 2 fayl turbdi qaysi bri bu

Mavzu yaratish 06-Fev-2019 19:46 (0 soniya o‘tgach)

Iqitibos

Profil ShX

AxeL ®

Jins:
Yigit
Staj:
1 yil 2 oy
Xabarlar:
740

Qayerdan: Gronland, Norway

Taqiq:

7541bunda 2 fayl turbdi qaysi bri bu
sizlarga qulay bo'lsin deb, ikkita versiyasini tayyorlaganmiz hohlaganizni oling, batafsil relizni o'zida yozilgan

Mavzu yaratish 06-Fev-2019 21:32 (1 soat 45 daqiqa o‘tgach)

Iqitibos

Profil ShX

Firdavs93

Jins:
Ko‘rsatilmagan
Staj:
1 yil
Xabarlar:
4
Taqiq:

reliz bormi??? skorost pastku

Mavzu yaratish 26-Fev-2019 17:11 (19 kun o‘tgach)

Iqitibos

Profil ShX
Xabarlarni ko‘rsatish:    

Hozirgi vaqt: 17-Iyun 17:56

Vaqtlar farqi: UTC + 5



Siz mavzu yaratishingiz mumkin emas
Siz xabarlarga javob qaytarishingiz mumkin emas
Siz o‘z xabarlaringizni tahrirlashingiz mumkin emas
Siz o‘z xabarlaringizni o‘chirishingiz mumkin emas
Siz so‘rovlarda ovoz berishingiz mumkin emas
Siz xabalarga fayllarni biriktirishingiz mumkin emas
Siz fayllarni ko‘chirishingiz mumkin emas