˂
˃
Tarqatmalar statistikasi
Ko‘chirmoqdaman: [ 8 ]
Ko‘chirib bo‘ldim: [ 32 ]
 
     
 
 

N.U.R.I.K.B.E.K ®

Jins:
Yigit
Staj:
1 yil 5 oy
Xabarlar:
459

Qayerdan: Jizzax. Paxtakor

Taqiq:

-Logan | Логан | Logan
--Chiqqan yili: 2017
Davlat: AQSH
Janr: Fantastik, Jangari, Triller, Drama.
Davomiyligi: 02:17:23
Tarjima: Professional Kinoteatr O'zbek Tilida
Tarjima 2: Professional iTunes Rus Tilida--Rejissyor: Jeyms Mengold.-Rollarda: Xyu Jekman, Patrik Styuart, Dafni Kin, Boyd Xolbruk, Stiven Merchant, Elizabet Rodriges, Richard E Gran, Erik La Sall, Eliz Nil, Kuinsi Faus, Al Koronel, Frank Galegos.--Tavsif: Hayotdan charchagan Logan chegaraga yaqin joyda kasal bo'lib yashiringan professor Xga g'amxo'rlik qiladi. Ammo Logan Yovuz kuchlari tomonidan ta'qib qilinayotgan yosh mutantni qutqarib olganida, endi o'tmishini yashira olmaydi.-Qo'sh. ma'lumot:
--Videoning sifati: HDRip
Video format: MKV
Video: Xvid 720x304 23.976 fps 1 038 kb/s
Audio: MP3 48000Hz stereo 128kbps O'zbek Tili
Audio 2: Dolby AC3 48000Hz 6ch 384kbps Rus Tili--

Media Info

General
Format : Matroska
Format version : Version 4 / Version 2
File size : 1.49 GiB
Duration : 2 h 17 min
Overall bit rate : 1 552 kb/s
Encoded date : UTC 2019-02-03 20:30:37
Writing application : mkvmerge v15.0.0 ('Duel with the Devil') 64-bit
Writing library : libebml v1.3.5 + libmatroska v1.4.5
Video
ID : 1
Format : MPEG-4 Visual
Format profile : Advanced Simple@L5
Format settings, BVOP : 2
Format settings, QPel : No
Format settings, GMC : No warppoints
Format settings, Matrix : Default (MPEG)
Codec ID : V_MS/VFW/FOURCC / XVID
Codec ID/Hint : XviD
Duration : 2 h 17 min
Bit rate : 1 038 kb/s
Width : 720 pixels
Height : 304 pixels
Display aspect ratio : 2.35:1
Frame rate mode : Constant
Frame rate : 23.976 (23976/1000) FPS
Original frame rate : 23.976 (24000/1001) FPS
Color space : YUV
Chroma subsampling : 4:2:0
Bit depth : 8 bits
Scan type : Progressive
Compression mode : Lossy
Bits/(Pixel*Frame) : 0.198
Stream size : 1 020 MiB (67%)
Writing library : XviD 1.2.1 (UTC 2008-12-04)
Default : Yes
Forced : No
Audio #1
ID : 2
Format : MPEG Audio
Format version : Version 1
Format profile : Layer 3
Mode : Joint stereo
Mode extension : MS Stereo
Codec ID : A_MPEG/L3
Codec ID/Hint : MP3
Duration : 2 h 17 min
Bit rate mode : Constant
Bit rate : 128 kb/s
Channel(s) : 2 channels
Sampling rate : 48.0 kHz
Frame rate : 41.667 FPS (1152 SPF)
Compression mode : Lossy
Stream size : 126 MiB (8%)
Title : O'zbek Tili
Writing library : LAME3.99.5
Language : Uzbek
Default : Yes
Forced : No
Audio #2
ID : 3
Format : AC-3
Format/Info : Audio Coding 3
Format settings, Endianness : Big
Codec ID : A_AC3
Duration : 2 h 17 min
Bit rate mode : Constant
Bit rate : 384 kb/s
Channel(s) : 6 channels
Channel positions : Front: L C R, Side: L R, LFE
Sampling rate : 48.0 kHz
Frame rate : 31.250 FPS (1536 SPF)
Bit depth : 16 bits
Compression mode : Lossy
Stream size : 377 MiB (25%)
Title : Rus Tili
Language : Russian
Service kind : Complete Main
Default : No
Forced : No
LAVHALAR
.torrent yuklash

Yuqori tezlikda va bepul ko‘chirish!

Qanday yuklab olinadi? · Torrent nima o‘zi? · Reyting va cheklovlar

Profil ShX

MRLG

Jins:
Yigit
Staj:
1 yil 8 oy
Xabarlar:
577
Taqiq:

N.U.R.I.K.B.E.K, Bo'lim tanlashda xatolik yuz bergan. Relizingizni bu yerga ko'chirib o'tkazing: http://uztracker.me/viewforum.php?f=26

Mavzu yaratish 07-Fev-2019 17:25 (3 soat o‘tgach)

Iqitibos

Profil ShX

SobirR

Jins:
Yigit
Staj:
1 yil
Xabarlar:
231

Qayerdan: Navoiy. Uchquduq

Taqiq:

N.U.R.I.K.B.E.K, Sifat HDRipga tortmaydi.

Mavzu yaratish 07-Fev-2019 21:28 (4 soat o‘tgach)

Iqitibos

Profil ShX

N.U.R.I.K.B.E.K ®

Jins:
Yigit
Staj:
1 yil 5 oy
Xabarlar:
459

Qayerdan: Jizzax. Paxtakor

Taqiq:

SobirR,
7559N.U.R.I.K.B.E.K, Sifat HDRipga tortmaydi.
Olgan joyimda yozilganni borini yozdim.

Mavzu yaratish 07-Fev-2019 21:44 (15 daqiqa o‘tgach)

Iqitibos

Profil ShX

Daymos

Jins:
Yigit
Staj:
11 oy 19 kun
Xabarlar:
4

Qayerdan: Navoiy

Taqiq:

MKV формат хеч качон HDRip булмайди ку ахир)

Mavzu yaratish 08-Fev-2019 21:15 (23 soat o‘tgach)

Iqitibos

Profil ShX

N.U.R.I.K.B.E.K ®

Jins:
Yigit
Staj:
1 yil 5 oy
Xabarlar:
459

Qayerdan: Jizzax. Paxtakor

Taqiq:

Daymos, MKVToolNix da ovoz yo'lagini birlashtirganimda mkv qiberapti boshqa farmat yo' ekan yoki men ko'rmadim xali.

Mavzu yaratish 09-Fev-2019 12:05 (14 soat o‘tgach)

Iqitibos

Profil ShX

N.U.R.I.K.B.E.K ®

Jins:
Yigit
Staj:
1 yil 5 oy
Xabarlar:
459

Qayerdan: Jizzax. Paxtakor

Taqiq:

Kõchirib oganlar qoganlar xam kõchirib olishiga yordam berilar ogach qochib qomasdan.

Mavzu yaratish 10-Fev-2019 12:31 (1 kun o‘tgach)

Iqitibos

Profil ShX

akbarkhan

Jins:
Yigit
Staj:
2 oy 24 kun
Xabarlar:
6

Qayerdan: Guliston City

Taqiq:

ko'chirmayapti
yordam bervorilar

Mavzu yaratish 16-Fev-2019 00:01 (5 kun o‘tgach)

Iqitibos

Profil ShX
Xabarlarni ko‘rsatish:    

Hozirgi vaqt: 18-Apr 20:08

Vaqtlar farqi: UTC + 5



Siz mavzu yaratishingiz mumkin emas
Siz xabarlarga javob qaytarishingiz mumkin emas
Siz o‘z xabarlaringizni tahrirlashingiz mumkin emas
Siz o‘z xabarlaringizni o‘chirishingiz mumkin emas
Siz so‘rovlarda ovoz berishingiz mumkin emas
Siz xabalarga fayllarni biriktirishingiz mumkin emas
Siz fayllarni ko‘chirishingiz mumkin emas