˂
˃
Tarqatmalar statistikasi
Ko‘chirmoqdaman: [ 8 ]
Ko‘chirib bo‘ldim: [ 10 ]
 
     
 
 

Lock ®

Jins:
Yigit
Staj:
6 oy 9 kun
Xabarlar:
37

Qayerdan: Namangan

Taqiq:

Sarkor | По стопам отца | Sarkar- Chiqqan yili: 2005
Davlat: Hindiston
Janr: Drama, detektiv
Davomiyligi: 02:03:27
Tarjima: Professional (Ko'p ovozli kadr ortidan)
Rejissyor: Ram Gopal Varma-Rollarda: Amitabh Bachchan, Abhishek Bachchan, Katrina Kaif, Supriya Pathak, Kay Kay Menon, Ravi Keyl, Tanishaa Mukerji, Anupam Kher, Rukhsar Rehman, Kota Srinivasa Rao, Dipak Shirk, Zakir Hussain va boshqalar-Tavsif: Subshah Nagre Hindistonning mintaqaviy avtoriteti. U, imkoni boricha o'z hududida adolat ruhini va yomonlikni rad etishga harakat qiladi. Ammo u bilan uning mol-mulkidagi faoliyatga rozi bo'lmagan holda, arabiy mafiozasiga ochiq qarshilik ko'rsatiladi. Yaqinda Amerikadan kelgan Subhashning o'g'li Shankar bu mojaroning markaziga jalb qilinadi. Urush hayot va o'lim uchun boshlanganini tushunib, Shankarni Amerikaga qaytib kelishiga ishontiradi, lekin u qiyin paytda otasini tark etmoqchi emas ...-Videoning sifati: BDRip AVC
Video format: MKV
Video: HEVC 1280x544 3555 kb/s
Audio 1: AAC 48000Hz 6ch 384 kb/s | Rus tilida
Audio 2: AAC 48000Hz 6ch 24 Bits, 1509 kb/s | Hindcha Original
Audio 3: AAC 44100Hz 2ch 256 kb/s | O'zbek tilida
Subtitrlar: Ingliz tilida

Media Info

General
Unique ID : 139930436872760472436628147058867742178 (0x69459F319736C7224B0DAB1CCBD4A5E2)
Complete name : E:\MEDIA\Перевод\Po.Stopam.Otsa.2005.BDRip.X264.720p.mkv
Format : Matroska
Format version : Version 4
File size : 4.92 GiB
Duration : 2 h 3 min
Overall bit rate : 5 706 kb/s
Movie name : -= BwTorrents.Ru =- Exclusive !!! =-
Encoded date : UTC 2019-02-09 04:59:34
Writing application : mkvmerge v30.1.0 ('Forever And More') 64-bit
Writing library : libebml v1.3.6 + libmatroska v1.4.9
Video
ID : 1
Format : AVC
Format/Info : Advanced Video Codec
Format profile : High@L4.1
Format settings : CABAC / 9 Ref Frames
Format settings, CABAC : Yes
Format settings, ReFrames : 9 frames
Codec ID : V_MPEG4/ISO/AVC
Duration : 2 h 3 min
Bit rate : 3 555 kb/s
Width : 1 280 pixels
Height : 544 pixels
Display aspect ratio : 2.35:1
Frame rate mode : Constant
Frame rate : 24.000 FPS
Color space : YUV
Chroma subsampling : 4:2:0
Bit depth : 8 bits
Scan type : Progressive
Bits/(Pixel*Frame) : 0.213
Stream size : 3.06 GiB (62%)
Title : Sarkor 2005 BDRip
Writing library : x264 core 98 r1649 c54c47d
Encoding settings : cabac=1 / ref=9 / deblock=1:-3:1 / analyse=0x3:0x113 / me=umh / subme=8 / psy=1 / psy_rd=1.00:0.00 / mixed_ref=1 / me_range=16 / chroma_me=1 / trellis=1 / 8x8dct=1 / cqm=0 / deadzone=21,11 / fast_pskip=1 / chroma_qp_offset=-2 / threads=3 / sliced_threads=0 / nr=0 / decimate=1 / interlaced=0 / constrained_intra=0 / bframes=3 / b_pyramid=0 / b_adapt=2 / b_bias=0 / direct=3 / weightb=1 / weightp=2 / keyint=250 / keyint_min=25 / scenecut=40 / intra_refresh=0 / rc_lookahead=40 / rc=2pass / mbtree=1 / bitrate=3555 / ratetol=1.0 / qcomp=0.60 / qpmin=10 / qpmax=51 / qpstep=4 / cplxblur=20.0 / qblur=0.5 / ip_ratio=1.40 / aq=1:1.00
Language : Hindi
Default : Yes
Forced : No
Audio #1
ID : 2
Format : AC-3
Format/Info : Audio Coding 3
Commercial name : Dolby Digital
Codec ID : A_AC3
Duration : 2 h 3 min
Bit rate mode : Constant
Bit rate : 384 kb/s
Channel(s) : 6 channels
Channel layout : L R C LFE Ls Rs
Sampling rate : 48.0 kHz
Frame rate : 31.250 FPS (1536 SPF)
Bit depth : 16 bits
Compression mode : Lossy
Stream size : 339 MiB (7%)
Title : DD AC3 5.1 @ 384 Kbps
Language : Russian
Service kind : Complete Main
Default : Yes
Forced : No
Audio #2
ID : 3
Format : DTS
Format/Info : Digital Theater Systems
Codec ID : A_DTS
Duration : 2 h 3 min
Bit rate mode : Constant
Bit rate : 1 509 kb/s
Channel(s) : 6 channels
Channel layout : C L R Ls Rs LFE
Sampling rate : 48.0 kHz
Frame rate : 93.750 FPS (512 SPF)
Bit depth : 24 bits
Compression mode : Lossy
Stream size : 1.30 GiB (26%)
Title : DTS 5.1 @ 1536 Kbps
Language : Hindi
Default : No
Forced : No
Audio #3
ID : 5
Format : MPEG Audio
Format version : Version 1
Format profile : Layer 3
Format settings : Joint stereo / MS Stereo
Codec ID : A_MPEG/L3
Codec ID/Hint : MP3
Duration : 2 h 3 min
Bit rate mode : Constant
Bit rate : 256 kb/s
Channel(s) : 2 channels
Sampling rate : 44.1 kHz
Frame rate : 38.281 FPS (1152 SPF)
Compression mode : Lossy
Stream size : 226 MiB (4%)
Title : Uzbek
Writing library : LAME3.99.5
Language : Uzbek
Default : No
Forced : No
Text
ID : 4
Format : UTF-8
Codec ID : S_TEXT/UTF8
Codec ID/Info : UTF-8 Plain Text
Duration : 1 h 59 min
Bit rate : 34 b/s
Count of elements : 929
Stream size : 29.8 KiB (0%)
Title : English Subtitles
Language : English
Default : No
Forced : No
.torrent yuklash

Yuqori tezlikda va bepul ko‘chirish!

Qanday yuklab olinadi? · Torrent nima o‘zi? · Reyting va cheklovlar



So‘ngi marta tahrirlandi: Lock (2019-02-09 14:24), Jami tahrirlangan 3 marta
Profil ShX

AxeL

Jins:
Yigit
Staj:
1 yil 1 oy
Xabarlar:
711

Qayerdan: Gronland, Norway

Taqiq:

Video: HEVC 1920x816 24fps 500 kb/s
bu xato yozilgan, razmer esa skrinlardagilar bilan mos kelmayapti, umuman tex ma'lumotlar bilan media info bir biriga mos kelmayapti

Mavzu yaratish 09-Fev-2019 11:37 (6 daqiqa o‘tgach)

Iqitibos

Profil ShX

lawyer

Jins:
Ko‘rsatilmagan
Staj:
1 yil 4 oy
Xabarlar:
21
Taqiq:

Хажми катта Хиндча овоз йулагини олиб ташланг. Кўпчилик хажми катта бўлса кучирмайди шунга эътибор беринг. Кино зўр лекин.

Mavzu yaratish 09-Fev-2019 12:39 (1 soat 1 daqiqa o‘tgach)

Iqitibos

Profil ShX

Lock ®

Jins:
Yigit
Staj:
6 oy 9 kun
Xabarlar:
37

Qayerdan: Namangan

Taqiq:

Qanchaga qisqaradi tahminan


So‘ngi marta tahrirlandi: Lock (2019-02-09 12:50), Jami tahrirlangan 1 marta

Mavzu yaratish 09-Fev-2019 12:43 (4 daqiqa o‘tgach)

Iqitibos

Profil ShX

Lock ®

Jins:
Yigit
Staj:
6 oy 9 kun
Xabarlar:
37

Qayerdan: Namangan

Taqiq:

7576
Video: HEVC 1920x816 24fps 500 kb/s
bu xato yozilgan, razmer esa skrinlardagilar bilan mos kelmayapti, umuman tex ma'lumotlar bilan media info bir biriga mos kelmayapti
Ha e'tibor bermabman boshqa joydan nusxalagandim


So‘ngi marta tahrirlandi: Lock (2019-02-09 12:53), Jami tahrirlangan 1 marta

Mavzu yaratish 09-Fev-2019 12:45 (1 daqiqa o‘tgach)

Iqitibos

Profil ShX

Lock ®

Jins:
Yigit
Staj:
6 oy 9 kun
Xabarlar:
37

Qayerdan: Namangan

Taqiq:

7579Qanchaga qisqaradi tahminan
Sinab ko'rdim 1.3 GB ga kamaydi

Mavzu yaratish 09-Fev-2019 12:50 (5 daqiqa o‘tgach)

Iqitibos

Profil ShX

Lock ®

Jins:
Yigit
Staj:
6 oy 9 kun
Xabarlar:
37

Qayerdan: Namangan

Taqiq:

Bezashda nima kamchilik bo'libdi aytib yuboringlar


So‘ngi marta tahrirlandi: Lock (2019-02-09 14:22), Jami tahrirlangan 1 marta

Mavzu yaratish 09-Fev-2019 13:18 (27 daqiqa o‘tgach)

Iqitibos

Profil ShX

AxeL

Jins:
Yigit
Staj:
1 yil 1 oy
Xabarlar:
711

Qayerdan: Gronland, Norway

Taqiq:

Lock, audio texnik ma'lumotlar xato yozilgan

Mavzu yaratish 09-Fev-2019 13:56 (38 daqiqa o‘tgach)

Iqitibos

Profil ShX

Lock ®

Jins:
Yigit
Staj:
6 oy 9 kun
Xabarlar:
37

Qayerdan: Namangan

Taqiq:

AxeL, ularni to'g'riladim

Mavzu yaratish 09-Fev-2019 14:22 (25 daqiqa o‘tgach)

Iqitibos

Profil ShX
Xabarlarni ko‘rsatish:    

Hozirgi vaqt: 18-Apr 19:20

Vaqtlar farqi: UTC + 5



Siz mavzu yaratishingiz mumkin emas
Siz xabarlarga javob qaytarishingiz mumkin emas
Siz o‘z xabarlaringizni tahrirlashingiz mumkin emas
Siz o‘z xabarlaringizni o‘chirishingiz mumkin emas
Siz so‘rovlarda ovoz berishingiz mumkin emas
Siz xabalarga fayllarni biriktirishingiz mumkin emas
Siz fayllarni ko‘chirishingiz mumkin emas